Хоббит: Трилогия / The Hobbit: Trilogy (Питер Джексон) [2012-2014 , Фэнтези, приключения , BDRip-AVC] Лицензия :: FireBit.Red
Регистрация ·
Имя: Пароль:  
· Забыли пароль?


 Хоббит: Трилогия / The Hobbit: Trilogy (Питер Джексон) [2012-2014 , Фэнтези, приключения , BDRip-AVC] Лицензия

Главная » Фильмы » Зарубежные Фильмы » Сборники
 
Автор Сообщение
  • Aполлон ®
  • 42
  • Пол: Мужской

  • Стаж: 8 месяцев 15 дней

  • Сообщений: 291

  • Откуда: Самарканд

  • Репутация: 225


  • Создавать темы 27-Май-2016 20:18

    -Хоббит: Трилогия / The Hobbit : Trilogy- Год выпуска: 2012-2014
    Страна: США, Новая Зеландия
    Жанр: Фэнтези, приключения --Режиссер: Питер Джексон--Описание:
    Фильмы являются вольной экранизацией повести Толкина «Хоббит, или Туда и обратно». Они рассказывают нам о приключениях хоббита Бильбо Бэггинса и тринадцати гномов по пути к Одинокой горе, а также являются приквелом к кинотрилогии «Властелин колец».
    --

    Хоббит: Нежданное путешествие / The Hobbit: An Unexpected Journey (Питер Джексон) [2012 г., Фэнтези, приключения, экранизация, BDRip-AVC]

    -Хоббит: Нежданное путешествие / The Hobbit: An Unexpected Journey- Год выпуска: 2012
    Страна: США, Новая Зеландия
    Жанр: Фэнтези, приключения, экранизация
    Продолжительность: 03:02:27
    Перевод: Профессиональный (дублированный) Лицензия
    Субтитры: Форсированные (rus), Русские--Режиссер: Питер Джексон--В ролях: Мартин Фриман, Иэн МакКеллен, Ричард Армитидж, Джеймс Несбитт, Кен Стотт, Грэм МакТавиш, Уильям Кирчер, Стивен Хантер, Дин О`Горман, Эйдан Тёрнер, Джон Коллен, Питер Хэмблтон, Джед Брофи, Энди Серкис, Кейт Бланшетт, Элайджа Вуд, Хьюго Уивинг, Кристофер Ли, Иэн Холм, Марк Хэдлоу--Описание: С чего началось то, что навсегда изменило мир? С потери гномьим народом своего родного дома и горячего желания его вернуть, пронесенного даже сквозь года! А причем же здесь хоббит Бильбо Бэггинс? Ведь он не гном и с домом у него все в порядке - кладовые полны припасов, а шкафчики - маминой посуды! Почему волшебник Гэндальф выбрал именно его в спутники тринадцати гномам под предводительством легендарного воина Торина Дубощита? Что же на самом деле так глубоко спрятано в этом полурослике, и поможет ли это отважным гномам обрести то, ради чего они не раз будут готовы встречаться со смертью?--Качество: BDRip-AVC
    Формат: MKV
    Видео данные: AVC, 1 024x436, 23.976 fps, 2 810 kb/s
    Аудио данные #1: AC3, 48 kHz, 6 ch, 448 kbps [Rus]

    Аудио данные #2: AC3, 48 kHz, 6 ch, 448 kbps [Eng]

    Media Info

    General
    Unique ID : 245360723829435938540872002202398025077 (0xB896C1AB4AD712E8912ABD4F757AE575)
    Complete name : D:\фильмы\Хоббит - Трилогия [FireBit.Red]\1. Хоббит Нежданное путешествие - The Hobbit An Unexpected Journey [FireBit.Red].mkv
    Format : Matroska
    Format version : Version 2
    File size : 4.72 GiB
    Duration : 3h 2mn
    Overall bit rate : 3 706 Kbps
    Movie name : Элементарно.2-й сезон.7-я серия.Rip by: ollan
    Encoded date : UTC 2013-11-12 08:49:47
    Writing application : mkvmerge v5.6.0 ('Kenya Kane') built on May 27 2012 16:44:04
    Writing library : libebml v1.2.3 + libmatroska v1.3.0
    Video
    ID : 1
    Format : AVC
    Format/Info : Advanced Video Codec
    Format profile : High@L4.1
    Format settings, CABAC : Yes
    Format settings, ReFrames : 9 frames
    Codec ID : V_MPEG4/ISO/AVC
    Duration : 3h 2mn
    Bit rate : 2 810 Kbps
    Width : 1 024 pixels
    Height : 436 pixels
    Display aspect ratio : 2.35:1
    Frame rate mode : Constant
    Frame rate : 23.976 fps
    Color space : YUV
    Chroma subsampling : 4:2:0
    Bit depth : 8 bits
    Scan type : Progressive
    Bits/(Pixel*Frame) : 0.263
    Stream size : 3.49 GiB (74%)
    Writing library : x264 core 125 r2200 999b753
    Encoding settings : cabac=1 / ref=9 / deblock=1:-3:-3 / analyse=0x3:0x133 / me=umh / subme=11 / psy=1 / psy_rd=1.00:0.10 / mixed_ref=1 / me_range=32 / chroma_me=1 / trellis=2 / 8x8dct=1 / cqm=0 / deadzone=21,11 / fast_pskip=0 / chroma_qp_offset=-3 / threads=12 / lookahead_threads=2 / sliced_threads=0 / nr=0 / decimate=0 / interlaced=0 / bluray_compat=0 / constrained_intra=0 / bframes=11 / b_pyramid=2 / b_adapt=2 / b_bias=0 / direct=3 / weightb=1 / open_gop=0 / weightp=2 / keyint=240 / keyint_min=23 / scenecut=40 / intra_refresh=0 / rc_lookahead=40 / rc=2pass / mbtree=1 / bitrate=2810 / ratetol=1.0 / qcomp=0.60 / qpmin=0 / qpmax=69 / qpstep=4 / cplxblur=20.0 / qblur=0.5 / vbv_maxrate=5000 / vbv_bufsize=62500 / nal_hrd=none / ip_ratio=1.40 / aq=1:1.00
    Default : Yes
    Forced : No
    Audio #1
    ID : 2
    Format : AC-3
    Format/Info : Audio Coding 3
    Mode extension : CM (complete main)
    Format settings, Endianness : Big
    Codec ID : A_AC3
    Duration : 3h 2mn
    Bit rate mode : Constant
    Bit rate : 448 Kbps
    Channel(s) : 6 channels
    Channel positions : Front: L C R, Side: L R, LFE
    Sampling rate : 48.0 KHz
    Bit depth : 16 bits
    Compression mode : Lossy
    Stream size : 585 MiB (12%)
    Title : Дублированный (Лицензия)
    Language : Russian
    Default : Yes
    Forced : Yes
    Audio #2
    ID : 3
    Format : AC-3
    Format/Info : Audio Coding 3
    Mode extension : CM (complete main)
    Format settings, Endianness : Big
    Codec ID : A_AC3
    Duration : 3h 2mn
    Bit rate mode : Constant
    Bit rate : 448 Kbps
    Channel(s) : 6 channels
    Channel positions : Front: L C R, Side: L R, LFE
    Sampling rate : 48.0 KHz
    Bit depth : 16 bits
    Compression mode : Lossy
    Stream size : 585 MiB (12%)
    Language : English
    Default : No
    Forced : No
    Text #1
    ID : 4
    Format : UTF-8
    Codec ID : S_TEXT/UTF8
    Codec ID/Info : UTF-8 Plain Text
    Title : Форсированные
    Language : Russian
    Default : Yes
    Forced : Yes
    Text #2
    ID : 5
    Format : UTF-8
    Codec ID : S_TEXT/UTF8
    Codec ID/Info : UTF-8 Plain Text
    Language : Russian
    Default : No
    Forced : No
    Menu
    00:00:00.000 : en:Prologue: The Fall of Erebor
    00:10:11.903 : en:"In a Hole in the Ground There Lived a Hobbit"
    00:14:08.723 : en:Very Old Friends
    00:17:27.255 : en:Mr. Baggins
    00:18:44.623 : en:An Unexpected Party
    00:23:16.604 : en:"Blunt the Knives"
    00:27:59.469 : en:A Map, A Key and A Contract
    00:36:04.871 : en:"Misty Mountains"
    00:41:17.266 : en:"...The World Ahead"
    00:46:30.830 : en:The Battle of Azanulbizar
    00:53:04.181 : en:Radagast the Brown
    00:58:07.651 : en:Trollshaws
    00:59:55.300 : en:Roast Mutton
    01:10:42.405 : en:A Troll-hoard
    01:15:01.831 : en:The Hill of Sorcery
    01:18:52.811 : en:Warg-scouts
    01:24:56.925 : en:Rivendell
    01:30:34.429 : en:A Short Rest
    01:34:10.603 : en:Moon Runes
    01:37:24.464 : en:The Defiler
    01:39:03.479 : en:The Last Homely House
    01:41:40.803 : en:The White Council
    01:50:22.533 : en:"Why the Halfling?"
    01:52:59.773 : en:Over Hill
    01:59:06.348 : en:Under Hill
    02:03:57.513 : en:The Great Goblin
    02:09:51.575 : en:Riddles in the Dark
    02:23:21.426 : en:Biter and Beater
    02:25:18.877 : en:The Ring
    02:26:31.199 : en:Escape from Goblin Town
    02:30:52.919 : en:The Pity of Bilbo
    02:33:00.546 : en:"Home is Behind..."
    02:35:52.593 : en:Out of the Frying Pan...
    02:46:51.210 : en:A Good Omen
    02:52:21.373 : en:Credits

    Скриншоты

    Хоббит: Пустошь Смауга / The Hobbit: The Desolation of Smaug (Питер Джексон) [2013 г., Фэнтези, приключения, BDRip-AVC]

    -Хоббит: Пустошь Смауга / The Hobbit: The Desolation of Smaug- Год выпуска: 2013
    Страна: США, Новая Зеландия
    Жанр: Фэнтези, приключения
    Продолжительность: 02:41:16
    Перевод: Профессиональный (дублированный) Лицензия
    Субтитры: Русские, Украинские--Режиссер: Питер Джексон--В ролях: Мартин Фриман, Ричард Армитедж, Иэн МакКеллен, Эванджелин Лилли, Орландо Блум, Люк Эванс, Бенедикт Камбербэтч, Ли Пейс, Кен Стотт, Эйдан Тернер--Описание: Продолжение путешествия хоббита Бильбо Бэггинса, волшебника Гэндальфа и 13 отважных гномов. Их компания обязана завершить своё путешествие к Одинокой горе. Там они должны встретиться с величайшей опасностью из всех — созданием куда более ужасающим, чем все их прошлые противники, которое проверит на прочность не только их мужество, но крепость их дружбы и правильность выбранного пути, — драконом Смаугом.--Качество: BDRip-AVC
    Формат: MKV
    Видео данные: AVC, 1 024x423, 23.976 fps, 2 263 kb/s
    Аудио данные #1: AC3, 48 kHz, 6 ch, 448 kbps [Rus]

    Аудио данные #2: AC3, 48 kHz, 6 ch, 448 kbps [Eng]

    Аудио данные #3: AC3, 48 kHz, 6 ch, 448 kbps [Eng]

    Media Info

    General
    Unique ID : 246573581826179495151172179778447230634 (0xB980582F68653F3F86111C3B3A3646AA)
    Complete name : D:\фильмы\Хоббит - Трилогия [FireBit.Red]\2. Хоббит Пустошь Смауга - The Hobbit The Desolation of Smaug [FireBit.Red].mkv
    Format : Matroska
    Format version : Version 4 / Version 2
    File size : 4.37 GiB
    Duration : 3h 6mn
    Overall bit rate : 3 353 Kbps
    Movie name : Hobbit.Pustoshj.Smauga.Extended.Cut.2013.x264.BDRip.AVC.gogamel74.ExKinoRay
    Encoded date : UTC 2014-11-06 07:21:24
    Writing application : mkvmerge v7.3.0 ('Nouages') 64bit built on Oct 22 2014 18:53:34
    Writing library : libebml v1.3.0 + libmatroska v1.4.1
    Attachements : CoverCommander.jpg
    DURATION : 02:54:57.127000000
    NUMBER_OF_FRAMES : 2287
    NUMBER_OF_BYTES : 56067
    _STATISTICS_WRITING_APP : mkvmerge v7.3.0 ('Nouages') 64bit built on Oct 22 2014 18:53:34
    _STATISTICS_WRITING_DATE_UTC : 2014-11-06 07:21:24
    _STATISTICS_TAGS : BPS DURATION NUMBER_OF_FRAMES NUMBER_OF_BYTES
    Video
    ID : 1
    Format : AVC
    Format/Info : Advanced Video Codec
    Format profile : High@L4.1
    Format settings, CABAC : Yes
    Format settings, ReFrames : 10 frames
    Codec ID : V_MPEG4/ISO/AVC
    Duration : 3h 6mn
    Bit rate : 2 263 Kbps
    Width : 1 024 pixels
    Height : 426 pixels
    Display aspect ratio : 2.40:1
    Frame rate mode : Constant
    Frame rate : 23.976 fps
    Color space : YUV
    Chroma subsampling : 4:2:0
    Bit depth : 8 bits
    Scan type : Progressive
    Bits/(Pixel*Frame) : 0.216
    Stream size : 2.87 GiB (66%)
    Title : Hobbit.Pustoshj.Smauga.Extended.Cut.2013.x264.BDRip.AVC.gogamel74.ExKinoRay
    Writing library : x264 core 142 r2431 ac76440
    Encoding settings : cabac=1 / ref=10 / deblock=1:-3:-3 / analyse=0x3:0x133 / me=umh / subme=11 / psy=1 / psy_rd=1.00:0.15 / mixed_ref=1 / me_range=32 / chroma_me=1 / trellis=2 / 8x8dct=1 / cqm=0 / deadzone=21,11 / fast_pskip=0 / chroma_qp_offset=-3 / threads=8 / lookahead_threads=2 / sliced_threads=0 / nr=0 / decimate=0 / interlaced=0 / bluray_compat=0 / constrained_intra=0 / bframes=10 / b_pyramid=2 / b_adapt=2 / b_bias=0 / direct=3 / weightb=1 / open_gop=0 / weightp=2 / keyint=240 / keyint_min=23 / scenecut=40 / intra_refresh=0 / rc_lookahead=60 / rc=2pass / mbtree=1 / bitrate=2263 / ratetol=1.0 / qcomp=0.70 / qpmin=0 / qpmax=69 / qpstep=4 / cplxblur=20.0 / qblur=0.5 / vbv_maxrate=50000 / vbv_bufsize=62500 / nal_hrd=none / filler=0 / ip_ratio=1.40 / aq=1:1.00
    Language : English
    Default : Yes
    Forced : Yes
    Audio #1
    ID : 2
    Format : AC-3
    Format/Info : Audio Coding 3
    Mode extension : CM (complete main)
    Format settings, Endianness : Big
    Codec ID : A_AC3
    Duration : 3h 6mn
    Bit rate mode : Constant
    Bit rate : 448 Kbps
    Channel(s) : 6 channels
    Channel positions : Front: L C R, Side: L R, LFE
    Sampling rate : 48.0 KHz
    Bit depth : 16 bits
    Compression mode : Lossy
    Stream size : 598 MiB (13%)
    Title : DUB - RUS - BD 3D CEE - AC3, 48 KHz, 6 ch, 448 kbps, 16 bit
    Language : Russian
    Default : Yes
    Forced : Yes
    DURATION : 03:06:34.560000000
    NUMBER_OF_FRAMES : 349830
    NUMBER_OF_BYTES : 626895360
    _STATISTICS_WRITING_APP : mkvmerge v7.3.0 ('Nouages') 64bit built on Oct 22 2014 18:53:34
    _STATISTICS_WRITING_DATE_UTC : 2014-11-06 07:21:24
    _STATISTICS_TAGS : BPS DURATION NUMBER_OF_FRAMES NUMBER_OF_BYTES
    Audio #2
    ID : 3
    Format : AC-3
    Format/Info : Audio Coding 3
    Mode extension : CM (complete main)
    Format settings, Endianness : Big
    Codec ID : A_AC3
    Duration : 3h 6mn
    Bit rate mode : Constant
    Bit rate : 448 Kbps
    Channel(s) : 6 channels
    Channel positions : Front: L C R, Side: L R, LFE
    Sampling rate : 48.0 KHz
    Bit depth : 16 bits
    Compression mode : Lossy
    Stream size : 598 MiB (13%)
    Title : Original - ENG - BD - AC3, 48 KHz, 6 ch, 448 kbps, 16 bit
    Language : English
    Default : No
    Forced : No
    Audio #3
    ID : 4
    Format : AC-3
    Format/Info : Audio Coding 3
    Format profile : Dolby Digital
    Mode extension : CM (complete main)
    Format settings, Endianness : Big
    Codec ID : A_AC3
    Duration : 3h 6mn
    Bit rate mode : Constant
    Bit rate : 192 Kbps
    Channel(s) : 2 channels
    Channel positions : Front: L R
    Sampling rate : 48.0 KHz
    Bit depth : 16 bits
    Compression mode : Lossy
    Stream size : 256 MiB (6%)
    Title : Commentary - ENG - BD - AC3, 48 KHz, 2 ch, 192 kbps, 16 bit
    Language : English
    Default : No
    Forced : No
    Text #1
    ID : 5
    Format : UTF-8
    Codec ID : S_TEXT/UTF8
    Codec ID/Info : UTF-8 Plain Text
    Title : Forced - RUS - BD
    Language : Russian
    Default : Yes
    Forced : Yes
    Text #2
    ID : 6
    Format : UTF-8
    Codec ID : S_TEXT/UTF8
    Codec ID/Info : UTF-8 Plain Text
    Title : Full - RUS - BD
    Language : Russian
    Default : No
    Forced : No
    Text #3
    ID : 7
    Format : UTF-8
    Codec ID : S_TEXT/UTF8
    Codec ID/Info : UTF-8 Plain Text
    Title : Full - UKR - BD
    Language : Ukrainian
    Default : No
    Forced : No
    Text #4
    ID : 8
    Format : UTF-8
    Codec ID : S_TEXT/UTF8
    Codec ID/Info : UTF-8 Plain Text
    Title : Full - ENG - BD
    Language : English
    Default : No
    Forced : No
    Text #5
    ID : 9
    Format : UTF-8
    Codec ID : S_TEXT/UTF8
    Codec ID/Info : UTF-8 Plain Text
    Title : SDH - ENG - BD
    Language : English
    Default : No
    Forced : No
    Menu
    00:00:00.000 : en:Chapter 01
    00:07:33.411 : en:Chapter 02
    00:12:00.261 : en:Chapter 03
    00:12:59.403 : en:Chapter 04
    00:15:55.329 : en:Chapter 05
    00:20:56.880 : en:Chapter 06
    00:23:15.310 : en:Chapter 07
    00:25:52.634 : en:Chapter 08
    00:29:59.214 : en:Chapter 09
    00:38:13.708 : en:Chapter 10
    00:46:43.717 : en:Chapter 11
    00:49:46.274 : en:Chapter 12
    00:53:19.196 : en:Chapter 13
    00:55:10.181 : en:Chapter 14
    00:58:07.817 : en:Chapter 15
    01:08:42.284 : en:Chapter 16
    01:12:22.296 : en:Chapter 17
    01:15:45.332 : en:Chapter 18
    01:19:09.828 : en:Chapter 19
    01:22:46.795 : en:Chapter 20
    01:25:09.395 : en:Chapter 21
    01:28:07.490 : en:Chapter 22
    01:31:15.178 : en:Chapter 23
    01:36:02.757 : en:Chapter 24
    01:37:35.724 : en:Chapter 25
    01:40:35.320 : en:Chapter 26
    01:45:16.476 : en:Chapter 27
    01:48:44.434 : en:Chapter 28
    01:50:31.625 : en:Chapter 29
    01:52:36.332 : en:Chapter 30
    01:53:08.239 : en:Chapter 31
    01:59:16.315 : en:Chapter 32
    02:07:11.790 : en:Chapter 33
    02:07:39.068 : en:Chapter 34
    02:09:22.629 : en:Chapter 35
    02:12:48.335 : en:Chapter 36
    02:22:00.803 : en:Chapter 37
    02:22:43.429 : en:Chapter 38
    02:23:17.880 : en:Chapter 39
    02:24:56.187 : en:Chapter 40
    02:26:45.046 : en:Chapter 41
    02:29:18.783 : en:Chapter 42
    02:33:12.683 : en:Chapter 43
    02:34:57.579 : en:Chapter 44
    02:36:13.155 : en:Chapter 45
    02:37:45.914 : en:Chapter 46
    02:39:08.789 : en:Chapter 47
    02:41:39.815 : en:Chapter 48
    02:44:05.794 : en:Chapter 49
    02:51:16.683 : en:Chapter 50
    02:56:05.179 : en:Chapter 51

    Скриншоты

    Хоббит: Битва пяти воинств / The Hobbit: The Battle of the Five Armies [2014 г., Фэнтези, приключения, BDRip-AVC]

    -Хоббит: Битва пяти воинств / The Hobbit: The Battle of the Five Armies- Год выпуска: 2014
    Страна: США, Новая Зеландия
    Жанр: Фэнтези, приключения
    Продолжительность: 02:24:28
    Перевод: Профессиональный (дублированный) Лицензия
    Субтитры: Русские--Режиссер: Питер Джексон--В ролях: Мартин Фриман, Иэн МакКеллен, Ричард Армитедж, Люк Эванс, Эванджелин Лилли, Ли Пейс, Орландо Блум, Бенедикт Камбербэтч, Кен Стотт, Эйдан Тёрнер, Грэм МакТавиш, Уильям Кирчер, Стивен Хантер, Дин О`Горман, Джеймс Несбитт, Джон Коллен, Питер Хэмблтон, Джед Брофи, Кейт Бланшетт, Хьюго Уивинг--Описание: Когда отряд из тринадцати гномов нанимал хоббита Бильбо Бэгинса в качестве взломщика и четырнадцатого, «счастливого», участника похода к Одинокой горе, Бильбо полагал, что его приключения закончатся, когда он выполнит свою задачу — найдет сокровище, которое так необходимо предводителю гномов Торину. Путешествие в Эребор, захваченное драконом Смаугом королевство гномов, оказалось еще более опасным, чем предполагали гномы и даже Гэндальф — мудрый волшебник, протянувший Торину и его отряду руку помощи. В погоню за гномами устремилась армия орков, ведомых пробудившимся в руинах древним злом, а эльфы и люди, с которыми Бильбо и его товарищам пришлось иметь дело во время путешествия и которые пострадали от последствий желания гномов вернуть свой дом, предъявили права на щедрое вознаграждение — часть сокровищ Одинокой горы. Скоро неподалеку от Одинокой горы встретятся пять армий, и лишь кровопролитная битва определит результаты смелого гномьего похода.--Качество: BDRip-AVC
    Формат: MKV
    Видео данные: AVC, 1 916x796, 23.976 fps, ~2 600 kb/s
    Аудио данные #1: AC3, 48 kHz, 6 ch, 384 kbps [Rus]

    Аудио данные #2: AC3, 48 kHz, 6 ch, 384 kbps [Eng]

    Аудио данные #3: AC3, 48 kHz, 6 ch, 384 kbps [Ukr]

    Media Info

    General
    Unique ID : 199799933768485211422593933600210760509 (0x96501149D9EDF4D0A99B4EFE1E73333D)
    Complete name : D:\фильмы\Хоббит - Трилогия [FireBit.Red]\3. Хоббит Битва пяти воинств - The Hobbit The Battle of the Five Armies [FireBit.Red].mkv
    Format : Matroska
    Format version : Version 4 / Version 2
    File size : 5.52 GiB
    Duration : 2h 24mn
    Overall bit rate : 5 472 Kbps
    Encoded date : UTC 2015-03-02 17:38:56
    Writing application : mkvmerge v7.3.0 ('Nouages') 64bit built on Oct 22 2014 18:53:34
    Writing library : libebml v1.3.0 + libmatroska v1.4.1
    _STATISTICS_WRITING_APP : mkvmerge v7.3.0 ('Nouages') 64bit built on Oct 22 2014 18:53:34
    _STATISTICS_WRITING_DATE_UTC : 2015-03-02 17:38:56
    _STATISTICS_TAGS : BPS DURATION NUMBER_OF_FRAMES NUMBER_OF_BYTES
    DURATION : 02:22:49.776000000
    NUMBER_OF_FRAMES : 87
    NUMBER_OF_BYTES : 2779
    Video
    ID : 1
    Format : AVC
    Format/Info : Advanced Video Codec
    Format profile : High@L4.0
    Format settings, CABAC : Yes
    Format settings, ReFrames : 5 frames
    Codec ID : V_MPEG4/ISO/AVC
    Duration : 2h 24mn
    Width : 1 916 pixels
    Height : 796 pixels
    Display aspect ratio : 2.40:1
    Frame rate mode : Constant
    Frame rate : 23.976 fps
    Color space : YUV
    Chroma subsampling : 4:2:0
    Bit depth : 8 bits
    Scan type : Progressive
    Language : English
    Default : Yes
    Forced : No
    Color primaries : BT.709
    Transfer characteristics : BT.709
    Matrix coefficients : BT.709
    Color range : Limited
    Audio #1
    ID : 2
    Format : AC-3
    Format/Info : Audio Coding 3
    Mode extension : CM (complete main)
    Format settings, Endianness : Big
    Codec ID : A_AC3
    Duration : 2h 24mn
    Bit rate mode : Constant
    Bit rate : 384 Kbps
    Channel(s) : 6 channels
    Channel positions : Front: L C R, Side: L R, LFE
    Sampling rate : 48.0 KHz
    Bit depth : 16 bits
    Compression mode : Lossy
    Stream size : 397 MiB (7%)
    Language : Russian
    Default : Yes
    Forced : No
    Audio #2
    ID : 3
    Format : AAC
    Format/Info : Advanced Audio Codec
    Format profile : LC
    Codec ID : A_AAC
    Duration : 2h 24mn
    Channel(s) : 2 channels
    Channel positions : Front: L R
    Sampling rate : 48.0 KHz
    Compression mode : Lossy
    Language : English
    Default : No
    Forced : No
    Audio #3
    ID : 4
    Format : AAC
    Format/Info : Advanced Audio Codec
    Format profile : LC
    Codec ID : A_AAC
    Duration : 2h 24mn
    Channel(s) : 2 channels
    Channel positions : Front: L R
    Sampling rate : 48.0 KHz
    Compression mode : Lossy
    Language : Ukrainian
    Default : No
    Forced : No
    Text
    ID : 5
    Format : UTF-8
    Codec ID : S_TEXT/UTF8
    Codec ID/Info : UTF-8 Plain Text
    Title : Fors
    Language : Russian
    Default : Yes
    Forced : No
    Menu
    00:00:00.000 : en:1
    00:05:12.000 : en:2
    00:12:26.000 : en:3
    00:12:58.000 : en:4
    00:18:36.000 : en:5
    00:23:21.000 : en:6
    00:24:35.000 : en:7
    00:25:43.000 : en:8
    00:27:12.000 : en:9
    00:34:34.000 : en:10
    00:38:27.000 : en:11
    00:39:46.000 : en:12
    00:40:57.000 : en:13
    00:43:54.000 : en:14
    00:49:05.000 : en:15
    00:52:36.000 : en:16
    00:53:53.000 : en:17
    00:56:09.000 : en:18
    00:58:04.000 : en:19
    01:01:57.000 : en:20
    01:07:13.000 : en:21
    01:10:00.000 : en:22
    01:12:29.000 : en:23
    01:16:50.000 : en:24
    01:20:05.000 : en:25
    01:22:15.000 : en:26
    01:24:25.000 : en:27
    01:26:35.000 : en:28
    01:29:18.000 : en:29
    01:31:17.000 : en:30
    01:32:03.000 : en:31
    01:33:01.000 : en:32
    01:35:58.000 : en:33
    01:36:52.000 : en:34
    01:40:16.000 : en:35
    01:48:15.000 : en:36
    01:54:22.000 : en:37
    01:57:41.000 : en:38
    02:00:47.000 : en:39
    02:06:48.000 : en:40
    02:11:30.000 : en:41

    Скриншоты

    • Bot
    • -746

    • Сообщений: 1267

    • Откуда: Из Ботляндии

    Создавать темы 27-Май-2016 20:25 (спустя 7 минут)

    Топик был перенесен из форума Фильмы HD в форум Сборники
    Machine
    Показать сообщения:    
    Главная » Фильмы » Зарубежные Фильмы » Сборники

    Текущее время: 19-Янв 07:16

    Часовой пояс: UTC + 5



    Вы не можете начинать темы
    Вы не можете отвечать на сообщения
    Вы не можете редактировать свои сообщения
    Вы не можете голосовать в опросах
    Вы не можете прикреплять файлы к сообщениям
    Вы не можете скачивать файлы
    Вы не можете удалять свои сообщения
    Firebit.red Torrent-Tracker :: 2016-2017 FBR Team Torrenpier pack by Baxrayder Supported by Media Portal Uztor.net