Терминатор: Квадрология / Terminator: Quadrilogy(Джеймс Кэмерон , Джонатан Мостоу, МакДжи ) [1984-2009 г, фантастика, боевик, триллер, BDRip-AVC] :: FireBit.Red
Регистрация ·
Имя: Пароль:  
· Забыли пароль?


 Терминатор: Квадрология / Terminator: Quadrilogy(Джеймс Кэмерон , Джонатан Мостоу, МакДжи ) [1984-2009 г, фантастика, боевик, триллер, BDRip-AVC]

Главная » Фильмы » Зарубежные Фильмы » Сборники
 
Автор Сообщение
  • kratos ®
  • 393
  • Пол: Мужской

  • Стаж: 8 месяцев 7 дней

  • Сообщений: 331

  • Откуда: Навои

  • Репутация: 261


  • Создавать темы 14-Июн-2016 04:02

    Год выпуска: 1984-2009
    Жанр: фантастика, боевик, триллер
    Качество: BDRip-AVC
    Формат: MKV
    --

    Терминатор / The Terminator (1984)

    информация:
    Год выхода: 1984
    Страна: США, Великобритания
    Режиссер: Джеймс Кэмерон / James Cameron
    Продолжительность: 01:47:13
    Перевод: Профессиональный (многоголосый закадровый)
    В ролях: Арнольд Шварценеггер, Майкл Бьен, Линда Хэмилтон, Пол Уинфилд, Лэнс Хенриксен, Бесс Мотта, Эрл Боэн, Рик Россович, Дик Миллер, Шоун Шеппс
    --О фильме:
    В 2029 году, в разгар войны между людьми и роботами, машины-убийцы с помощью суперкомпьютера «Скайнет» отправили в прошлое, в 1984 год, киборга-терминатора, который должен был убить женщину по имени Сара Коннор, чтобы не появился на свет ее сын, возглавивший в будущем восстание против роботов. Вслед за киборгом в 1984 год отправился и Кайл Рис, задача которого — остановить терминатора любой ценой!--Тех. данные:
    Видео: x264, 1024x554 (16:9), 23.976 fps, x264@L4.1, 2pass, ~3500 kbps avg
    Аудио #1: 48 kHz, AC3 Dolby Digital, 3/2 (L,C,R,l,r) + LFE ch, ~448.00 kbps
    Аудио #2: 48 kHz, AC3 Dolby Digital, 3/2 (L,C,R,l,r) + LFE ch, ~448.00 kbps | Оригинал

    Media Info:

    Format : Matroska
    Format version : Version 2
    File size : 3.29 GiB
    Duration : 1h 47mn
    Overall bit rate : 4 397 Kbps
    Encoded date : UTC 2011-10-08 18:07:58
    Writing application : mkvmerge v4.9.1 ('Ich will') сборка от Jul 11 2011 23:53:15
    Writing library : libebml v1.2.1 + libmatroska v1.1.1
    Video
    ID : 1
    Format : AVC
    Format/Info : Advanced Video Codec
    Format profile : High@L4.1
    Format settings, CABAC : Yes
    Format settings, ReFrames : 8 frames
    Codec ID : V_MPEG4/ISO/AVC
    Duration : 1h 47mn
    Bit rate : 3 500 Kbps
    Width : 1 024 pixels
    Height : 554 pixels
    Display aspect ratio : 1.85:1
    Frame rate mode : Constant
    Frame rate : 23.976 fps
    Color space : YUV
    Chroma subsampling : 4:2:0
    Bit depth : 8 bits
    Scan type : Progressive
    Bits/(Pixel*Frame) : 0.257
    Stream size : 2.56 GiB (78%)
    Title : Rip by DenisNN
    Writing library : x264 core 116 r2074 2641b9e
    Encoding settings : cabac=1 / ref=8 / deblock=1:3:3 / analyse=0x3:0x133 / me=umh / subme=10 / psy=1 / psy_rd=1.00:0.20 / mixed_ref=1 / me_range=32 / chroma_me=1 / trellis=2 / 8x8dct=1 / cqm=0 / deadzone=21,11 / fast_pskip=0 / chroma_qp_offset=2 / threads=3 / sliced_threads=0 / nr=0 / decimate=1 / interlaced=0 / bluray_compat=0 / constrained_intra=0 / bframes=7 / b_pyramid=2 / b_adapt=2 / b_bias=0 / direct=3 / weightb=1 / open_gop=0 / weightp=2 / keyint=250 / keyint_min=23 / scenecut=40 / intra_refresh=0 / rc=2pass / mbtree=0 / bitrate=3500 / ratetol=1.0 / qcomp=0.60 / qpmin=10 / qpmax=51 / qpstep=4 / cplxblur=20.0 / qblur=0.5 / ip_ratio=1.40 / pb_ratio=1.30 / aq=2:1.00
    Language : English
    Default : Yes
    Forced : No
    Audio #1
    ID : 2
    Format : AC-3
    Format/Info : Audio Coding 3
    Mode extension : CM (complete main)
    Format settings, Endianness : Big
    Codec ID : A_AC3
    Duration : 1h 47mn
    Bit rate mode : Constant
    Bit rate : 448 Kbps
    Channel(s) : 6 channels
    Channel positions : Front: L C R, Side: L R, LFE
    Sampling rate : 48.0 KHz
    Bit depth : 16 bits
    Compression mode : Lossy
    Stream size : 344 MiB (10%)
    Title : ОРТ
    Language : Russian
    Default : Yes
    Forced : No
    Audio #2
    ID : 3
    Format : AC-3
    Format/Info : Audio Coding 3
    Mode extension : CM (complete main)
    Format settings, Endianness : Big
    Codec ID : A_AC3
    Duration : 1h 47mn
    Bit rate mode : Constant
    Bit rate : 448 Kbps
    Channel(s) : 6 channels
    Channel positions : Front: L C R, Side: L R, LFE
    Sampling rate : 48.0 KHz
    Bit depth : 16 bits
    Compression mode : Lossy
    Stream size : 344 MiB (10%)
    Title : Английский
    Language : English
    Default : No
    Forced : No
    Text #1
    ID : 4
    Format : UTF-8
    Codec ID : S_TEXT/UTF8
    Codec ID/Info : UTF-8 Plain Text
    Title : Русские Лицензия
    Language : Russian
    Default : No
    Forced : No
    Text #2
    ID : 5
    Format : UTF-8
    Codec ID : S_TEXT/UTF8
    Codec ID/Info : UTF-8 Plain Text
    Title : Русские Гаврилов
    Language : Russian
    Default : No
    Forced : No
    Text #3
    ID : 6
    Format : UTF-8
    Codec ID : S_TEXT/UTF8
    Codec ID/Info : UTF-8 Plain Text
    Title : Английские
    Language : English
    Default : No
    Forced : No
    Menu
    00:00:00.000 : :Chapter 01
    00:06:23.924 : :Chapter 02
    00:13:38.233 : :Chapter 03
    00:15:04.737 : :Chapter 04
    00:22:42.528 : :Chapter 05
    00:29:42.698 : :Chapter 06
    00:38:40.026 : :Chapter 07
    00:41:18.101 : :Chapter 08
    00:47:39.398 : :Chapter 09
    00:54:34.480 : :Chapter 10
    01:03:46.613 : :Chapter 11
    01:09:29.122 : :Chapter 12
    01:17:11.710 : :Chapter 13
    01:26:17.631 : :Chapter 14
    01:32:12.277 : :Chapter 15
    01:36:07.762 : :Chapter 16

    скриншоты:

    Терминатор 2: Судный день / Terminator 2: Judgment Day (1991)

    информация:
    Год выхода: 1991
    Страна: США, Франция
    Режиссер: Джеймс Кэмерон / James Cameron
    Продолжительность: 02:33:25
    Перевод: Профессиональный (многоголосый закадровый)
    В ролях: Арнольд Шварценеггер, Линда Хэмилтон, Эдвард Ферлонг, Роберт Патрик, Эрл Боэн, Джо Мортон, С. Эпата Меркерсон, Кастуло Герра, Дэнни Кукси, Дженетт Голдстин
    --О фильме:
    Война роботов и людей продолжается. Казалось, что человечество обречено на полное уничтожение. Но благодаря своему лидеру Джону Коннору у сопротивления появляется шанс победить. Не имея возможности убить Джона в реальном времени, роботы отправляют в прошлое свою самую совершенную разработку — терминатора-убийцу из жидкого металла, способного принимать любое обличье. Теперь, чтобы победить в будущем, юному Джону Коннору надо выжить в настоящем. Его шансы существенно повышаются, когда на помощь приходит перепрограммированный сопротивлением терминатор предыдущего поколения. Оба робота вступают в смертельный бой, от исхода которого зависит судьба человечества.--Тех. данные:
    Видео: x264, 1024x556 (16:9), 23.976 fps, x264@L4.1, 2pass, ~3500 kbps avg
    Аудио #1: 48 kHz, AC3 Dolby Digital, 3/2 (L,C,R,l,r) + LFE ch, ~448.00 kbps
    Аудио #2: 48 kHz, AC3 Dolby Digital, 3/2 (L,C,R,l,r) + LFE ch, ~384.00 kbps | Оригинал

    Media Info:

    Format : Matroska
    Format version : Version 2
    File size : 4.64 GiB
    Duration : 2h 33mn
    Overall bit rate : 4 330 Kbps
    Encoded date : UTC 2011-10-12 23:15:39
    Writing application : mkvmerge v4.9.1 ('Ich will') сборка от Jul 11 2011 23:53:15
    Writing library : libebml v1.2.1 + libmatroska v1.1.1
    Video
    ID : 1
    Format : AVC
    Format/Info : Advanced Video Codec
    Format profile : High@L4.1
    Format settings, CABAC : Yes
    Format settings, ReFrames : 8 frames
    Codec ID : V_MPEG4/ISO/AVC
    Duration : 2h 33mn
    Bit rate : 3 500 Kbps
    Width : 1 024 pixels
    Height : 432 pixels
    Display aspect ratio : 2.40:1
    Frame rate mode : Constant
    Frame rate : 23.976 fps
    Color space : YUV
    Chroma subsampling : 4:2:0
    Bit depth : 8 bits
    Scan type : Progressive
    Bits/(Pixel*Frame) : 0.330
    Stream size : 3.66 GiB (79%)
    Title : Rip by DenisNN
    Writing library : x264 core 116 r2074 2641b9e
    Encoding settings : cabac=1 / ref=8 / deblock=1:2:2 / analyse=0x3:0x133 / me=umh / subme=10 / psy=1 / psy_rd=1.00:0.20 / mixed_ref=1 / me_range=32 / chroma_me=1 / trellis=2 / 8x8dct=1 / cqm=0 / deadzone=21,11 / fast_pskip=0 / chroma_qp_offset=2 / threads=3 / sliced_threads=0 / nr=0 / decimate=1 / interlaced=0 / bluray_compat=0 / constrained_intra=0 / bframes=7 / b_pyramid=2 / b_adapt=2 / b_bias=0 / direct=3 / weightb=1 / open_gop=0 / weightp=2 / keyint=250 / keyint_min=23 / scenecut=40 / intra_refresh=0 / rc=2pass / mbtree=0 / bitrate=3500 / ratetol=1.0 / qcomp=0.60 / qpmin=10 / qpmax=51 / qpstep=4 / cplxblur=20.0 / qblur=0.5 / ip_ratio=1.40 / pb_ratio=1.30 / aq=2:1.00
    Language : English
    Default : Yes
    Forced : No
    Audio #1
    ID : 2
    Format : AC-3
    Format/Info : Audio Coding 3
    Mode extension : CM (complete main)
    Format settings, Endianness : Big
    Codec ID : A_AC3
    Duration : 2h 33mn
    Bit rate mode : Constant
    Bit rate : 448 Kbps
    Channel(s) : 6 channels
    Channel positions : Front: L C R, Side: L R, LFE
    Sampling rate : 48.0 KHz
    Bit depth : 16 bits
    Compression mode : Lossy
    Stream size : 492 MiB (10%)
    Title : Позитив-Мультимедия
    Language : Russian
    Default : Yes
    Forced : No
    Audio #2
    ID : 3
    Format : AC-3
    Format/Info : Audio Coding 3
    Mode extension : CM (complete main)
    Format settings, Endianness : Big
    Codec ID : A_AC3
    Duration : 2h 33mn
    Bit rate mode : Constant
    Bit rate : 384 Kbps
    Channel(s) : 6 channels
    Channel positions : Front: L C R, Side: L R, LFE
    Sampling rate : 48.0 KHz
    Bit depth : 16 bits
    Compression mode : Lossy
    Stream size : 421 MiB (9%)
    Title : Английский
    Language : English
    Default : No
    Forced : No
    Text #1
    ID : 4
    Format : UTF-8
    Codec ID : S_TEXT/UTF8
    Codec ID/Info : UTF-8 Plain Text
    Title : Русские
    Language : Russian
    Default : No
    Forced : No
    Text #2
    ID : 5
    Format : UTF-8
    Codec ID : S_TEXT/UTF8
    Codec ID/Info : UTF-8 Plain Text
    Title : Английские
    Language : English
    Default : No
    Forced : No
    Text #3
    ID : 6
    Format : UTF-8
    Codec ID : S_TEXT/UTF8
    Codec ID/Info : UTF-8 Plain Text
    Title : Goblin
    Language : Russian
    Default : No
    Forced : No
    Menu
    00:00:00.000 : :Chapter 01
    00:05:35.210 : :Chapter 02
    00:16:31.407 : :Chapter 03
    00:31:19.878 : :Chapter 04
    00:38:52.664 : :Chapter 05
    00:49:48.110 : :Chapter 06
    01:06:24.314 : :Chapter 07
    01:28:59.751 : :Chapter 08
    01:35:16.753 : :Chapter 09
    01:44:23.799 : :Chapter 10
    01:59:43.593 : :Chapter 11
    02:08:43.716 : :Chapter 12

    скриншоты:

    Терминатор 3: Восстание машин / Terminator 3: Rise of the Machines (2003)

    информация:
    Год выхода: 2003
    Страна: США, Германия, Великобритания
    Режиссер: Джонатан Мостоу / Jonathan Mostow
    Продолжительность: 01:49:09
    Перевод: Профессиональный (полное дублирование)
    В ролях: Арнольд Шварценеггер, Ник Сталь, Клер Дэйнс, Кристанна Локен, Дэвид Эндрюс, Марк Фамиглетти, Эрл Боэн, Мойра Харрис, Чоппер Бернет, Кристофер Лоуфорд
    --О фильме:
    Прошло десять лет с тех пор, как Джон Коннор помог предотвратить Судный День и спасти человечество от массового уничтожения. Теперь ему 25, Коннор не живет «как все» — у него нет дома, нет кредитных карт, нет сотового телефона и никакой работы. Его существование нигде не зарегистрировано. Он не может быть прослежен системой Skynet — высокоразвитой сетью машин, которые когда-то попробовали убить его и развязать войну против человечества. Пока из теней будущего не появляется T-X — Терминатрикс, самый сложный киборг-убийца Skynet. Посланная назад сквозь время, чтобы завершить работу, начатую её предшественником, T-1000, эта машина так же упорна, как прекрасен её человеческий облик. Теперь единственная надежда Коннору выжить — Терминатор, его таинственный прежний убийца. Вместе они должны одержать победу над новыми технологиями T-X и снова предотвратить Судный День…--Тех. данные:
    Видео: x264, 1024x556 (16:9), 23.976 fps, x264@L4.1, 2pass, ~2322 kbps avg
    Аудио #1: 48 kHz, AC3 Dolby Digital, 3/2 (L,C,R,l,r) + LFE ch, ~448.00 kbps
    Аудио #2: 48 kHz, AC3 Dolby Digital, 3/2 (L,C,R,l,r) + LFE ch, ~448.00 kbps | Оригинал

    Media Info:

    Format : Matroska
    Format version : Version 2
    File size : 2.45 GiB
    Duration : 1h 49mn
    Overall bit rate : 3 219 Kbps
    Encoded date : UTC 2011-10-14 14:26:28
    Writing application : mkvmerge v4.9.1 ('Ich will') сборка от Jul 11 2011 23:53:15
    Writing library : libebml v1.2.1 + libmatroska v1.1.1
    Video
    ID : 1
    Format : AVC
    Format/Info : Advanced Video Codec
    Format profile : High@L4.1
    Format settings, CABAC : Yes
    Format settings, ReFrames : 8 frames
    Codec ID : V_MPEG4/ISO/AVC
    Duration : 1h 49mn
    Bit rate : 2 322 Kbps
    Width : 1 024 pixels
    Height : 422 pixels
    Display aspect ratio : 2.40:1
    Frame rate mode : Constant
    Frame rate : 23.976 fps
    Color space : YUV
    Chroma subsampling : 4:2:0
    Bit depth : 8 bits
    Scan type : Progressive
    Bits/(Pixel*Frame) : 0.224
    Stream size : 1.72 GiB (70%)
    Title : Rip by DenisNN
    Writing library : x264 core 116 r2074 2641b9e
    Encoding settings : cabac=1 / ref=8 / deblock=1:-3:-3 / analyse=0x3:0x133 / me=umh / subme=10 / psy=1 / psy_rd=1.00:0.00 / mixed_ref=1 / me_range=32 / chroma_me=1 / trellis=2 / 8x8dct=1 / cqm=0 / deadzone=21,11 / fast_pskip=0 / chroma_qp_offset=3 / threads=3 / sliced_threads=0 / nr=0 / decimate=1 / interlaced=0 / bluray_compat=0 / constrained_intra=0 / bframes=7 / b_pyramid=2 / b_adapt=2 / b_bias=0 / direct=3 / weightb=1 / open_gop=0 / weightp=2 / keyint=250 / keyint_min=23 / scenecut=40 / intra_refresh=0 / rc=2pass / mbtree=0 / bitrate=2322 / ratetol=1.0 / qcomp=0.60 / qpmin=10 / qpmax=51 / qpstep=4 / cplxblur=20.0 / qblur=0.5 / ip_ratio=1.40 / pb_ratio=1.30 / aq=2:1.00
    Language : English
    Default : Yes
    Forced : No
    Audio #1
    ID : 2
    Format : AC-3
    Format/Info : Audio Coding 3
    Mode extension : CM (complete main)
    Format settings, Endianness : Big
    Codec ID : A_AC3
    Duration : 1h 49mn
    Bit rate mode : Constant
    Bit rate : 448 Kbps
    Channel(s) : 6 channels
    Channel positions : Front: L C R, Side: L R, LFE
    Sampling rate : 48.0 KHz
    Bit depth : 16 bits
    Compression mode : Lossy
    Stream size : 350 MiB (14%)
    Title : Дубляж CEE
    Language : Russian
    Default : Yes
    Forced : No
    Audio #2
    ID : 3
    Format : AC-3
    Format/Info : Audio Coding 3
    Mode extension : CM (complete main)
    Format settings, Endianness : Big
    Codec ID : A_AC3
    Duration : 1h 49mn
    Bit rate mode : Constant
    Bit rate : 448 Kbps
    Channel(s) : 6 channels
    Channel positions : Front: L C R, Side: L R, LFE
    Sampling rate : 48.0 KHz
    Bit depth : 16 bits
    Compression mode : Lossy
    Stream size : 350 MiB (14%)
    Title : Английский
    Language : English
    Default : No
    Forced : No
    Text #1
    ID : 4
    Format : UTF-8
    Codec ID : S_TEXT/UTF8
    Codec ID/Info : UTF-8 Plain Text
    Title : Русские
    Language : Russian
    Default : No
    Forced : No
    Text #2
    ID : 5
    Format : UTF-8
    Codec ID : S_TEXT/UTF8
    Codec ID/Info : UTF-8 Plain Text
    Title : Русские NeNorMat
    Language : Russian
    Default : No
    Forced : No
    Text #3
    ID : 6
    Format : UTF-8
    Codec ID : S_TEXT/UTF8
    Codec ID/Info : UTF-8 Plain Text
    Title : Английский
    Language : English
    Default : No
    Forced : No
    Menu
    00:00:00.000 : :Chapter 01
    00:00:52.552 : :Chapter 02
    00:02:09.671 : :Chapter 03
    00:02:54.341 : :Chapter 04
    00:03:50.730 : :Chapter 05
    00:05:09.808 : :Chapter 06
    00:06:21.214 : :Chapter 07
    00:07:28.823 : :Chapter 08
    00:08:30.135 : :Chapter 09
    00:09:22.436 : :Chapter 10
    00:11:30.940 : :Chapter 11
    00:15:05.488 : :Chapter 12
    00:16:23.858 : :Chapter 13
    00:18:06.294 : :Chapter 14
    00:18:55.968 : :Chapter 15
    00:20:26.308 : :Chapter 16
    00:22:28.513 : :Chapter 17
    00:23:59.605 : :Chapter 18
    00:24:59.164 : :Chapter 19
    00:26:25.042 : :Chapter 20
    00:27:19.137 : :Chapter 21
    00:29:11.248 : :Chapter 22
    00:29:54.376 : :Chapter 23
    00:32:14.266 : :Chapter 24
    00:34:24.646 : :Chapter 25
    00:35:13.111 : :Chapter 26
    00:36:04.245 : :Chapter 27
    00:38:19.506 : :Chapter 28
    00:40:30.511 : :Chapter 29
    00:42:29.255 : :Chapter 30
    00:45:51.082 : :Chapter 31
    00:48:47.007 : :Chapter 32
    00:51:03.686 : :Chapter 33
    00:52:21.638 : :Chapter 34
    00:55:05.802 : :Chapter 35
    00:56:33.348 : :Chapter 36
    00:58:11.822 : :Chapter 37
    00:59:40.035 : :Chapter 38
    01:00:11.775 : :Chapter 39
    01:02:22.447 : :Chapter 40
    01:03:47.657 : :Chapter 41
    01:06:02.125 : :Chapter 42
    01:07:45.520 : :Chapter 43
    01:09:04.349 : :Chapter 44
    01:12:16.624 : :Chapter 45
    01:14:27.421 : :Chapter 46
    01:15:43.456 : :Chapter 47
    01:19:07.533 : :Chapter 48
    01:20:18.981 : :Chapter 49
    01:21:27.216 : :Chapter 50
    01:22:41.206 : :Chapter 51
    01:23:57.198 : :Chapter 52
    01:25:03.265 : :Chapter 53
    01:25:46.390 : :Chapter 54
    01:26:30.560 : :Chapter 55
    01:27:29.035 : :Chapter 56
    01:29:07.050 : :Chapter 57
    01:31:58.388 : :Chapter 58
    01:33:37.070 : :Chapter 59
    01:34:32.332 : :Chapter 60
    01:35:54.040 : :Chapter 61
    01:37:31.304 : :Chapter 62
    01:39:22.915 : :Chapter 63
    01:41:00.095 : :Chapter 64

    скриншоты:

    Терминатор 4: Да придёт спаситель / Terminator Salvation [Director's Cut] (2009)

    информация:
    Год выхода: 2009
    Страна: США, Германия, Великобритания, Италия
    Режиссер: МакДжи /McG
    Продолжительность: 01:57:40
    Перевод: Профессиональный (полное дублирование)
    В ролях: Кристиан Бэйл, Сэм Уортингтон, Мун Бладгуд, Хелена Бонем Картер, Антон Ельчин, Джадагрейс, Брайс Даллас Ховард, Коммон, Джейн Александр, Майкл Айронсайд
    --О фильме:
    2018 год от рождества Христова. Джон Коннор — человек, чья судьба — возглавить Сопротивление электронному мозгу Скайнет и армии Терминаторов. Но в будущее, с верой в которое он возвращен, вклинивается таинственный Маркус Райт: незнакомец, чьи последние воспоминания рисуют камеру смертников. Коннор должен понять, кто такой Маркус — посланник будущего или спасшийся из прошлого. И на фоне подготовки Скайнетом решающего удара, Коннор и Райт отправляются в путешествие, приводящее их в самую сердцевину взбунтовавшейся операционной системы, где открывается ужасная тайна, кроющаяся за потенциальным уничтожением человечества.--Тех. данные:
    Видео: x264, 1024x556 (16:9), 23.976 fps, x264@L4.1, 2pass, ~2862 kbps avg
    Аудио #1: 48 kHz, AC3 Dolby Digital, 3/2 (L,C,R,l,r) + LFE ch, ~640.00 kbps
    Аудио #2: 48 kHz, AC3 Dolby Digital, 3/2 (L,C,R,l,r) + LFE ch, ~448.00 kbps | Оригинал

    Media Info:

    Format : Matroska
    Format version : Version 2
    File size : 3.24 GiB
    Duration : 1h 57mn
    Overall bit rate : 3 945 Kbps
    Encoded date : UTC 2011-10-16 12:35:42
    Writing application : mkvmerge v4.9.1 ('Ich will') сборка от Jul 11 2011 23:53:15
    Writing library : libebml v1.2.1 + libmatroska v1.1.1
    Video
    ID : 1
    Format : AVC
    Format/Info : Advanced Video Codec
    Format profile : High@L4.1
    Format settings, CABAC : Yes
    Format settings, ReFrames : 8 frames
    Codec ID : V_MPEG4/ISO/AVC
    Duration : 1h 57mn
    Bit rate : 2 862 Kbps
    Width : 1 024 pixels
    Height : 426 pixels
    Display aspect ratio : 2.40:1
    Frame rate mode : Constant
    Frame rate : 23.976 fps
    Color space : YUV
    Chroma subsampling : 4:2:0
    Bit depth : 8 bits
    Scan type : Progressive
    Bits/(Pixel*Frame) : 0.274
    Stream size : 2.28 GiB (70%)
    Title : Rip by DenisNN
    Writing library : x264 core 116 r2074 2641b9e
    Encoding settings : cabac=1 / ref=8 / deblock=1:-3:-3 / analyse=0x3:0x133 / me=umh / subme=10 / psy=1 / psy_rd=1.00:0.00 / mixed_ref=1 / me_range=32 / chroma_me=1 / trellis=2 / 8x8dct=1 / cqm=0 / deadzone=21,11 / fast_pskip=0 / chroma_qp_offset=3 / threads=3 / sliced_threads=0 / nr=0 / decimate=1 / interlaced=0 / bluray_compat=0 / constrained_intra=0 / bframes=7 / b_pyramid=2 / b_adapt=2 / b_bias=0 / direct=3 / weightb=1 / open_gop=0 / weightp=2 / keyint=250 / keyint_min=23 / scenecut=40 / intra_refresh=0 / rc=2pass / mbtree=0 / bitrate=2862 / ratetol=1.0 / qcomp=0.60 / qpmin=10 / qpmax=51 / qpstep=4 / cplxblur=20.0 / qblur=0.5 / ip_ratio=1.40 / pb_ratio=1.30 / aq=2:1.00
    Language : English
    Default : Yes
    Forced : No
    Audio #1
    ID : 2
    Format : AC-3
    Format/Info : Audio Coding 3
    Mode extension : CM (complete main)
    Format settings, Endianness : Big
    Codec ID : A_AC3
    Duration : 1h 57mn
    Bit rate mode : Constant
    Bit rate : 640 Kbps
    Channel(s) : 6 channels
    Channel positions : Front: L C R, Side: L R, LFE
    Sampling rate : 48.0 KHz
    Bit depth : 16 bits
    Compression mode : Lossy
    Stream size : 539 MiB (16%)
    Title : Дубляж CEE
    Language : Russian
    Default : Yes
    Forced : No
    Audio #2
    ID : 3
    Format : AC-3
    Format/Info : Audio Coding 3
    Mode extension : CM (complete main)
    Format settings, Endianness : Big
    Codec ID : A_AC3
    Duration : 1h 57mn
    Bit rate mode : Constant
    Bit rate : 448 Kbps
    Channel(s) : 6 channels
    Channel positions : Front: L C R, Side: L R, LFE
    Sampling rate : 48.0 KHz
    Bit depth : 16 bits
    Compression mode : Lossy
    Stream size : 377 MiB (11%)
    Title : Английский
    Language : English
    Default : No
    Forced : No
    Text #1
    ID : 4
    Format : UTF-8
    Codec ID : S_TEXT/UTF8
    Codec ID/Info : UTF-8 Plain Text
    Title : Русские
    Language : Russian
    Default : No
    Forced : No
    Text #2
    ID : 5
    Format : UTF-8
    Codec ID : S_TEXT/UTF8
    Codec ID/Info : UTF-8 Plain Text
    Title : Русские FULL
    Language : Russian
    Default : No
    Forced : No
    Menu
    00:00:00.000 : :Chapter 01
    00:04:11.626 : :Chapter 02
    00:14:43.757 : :Chapter 03
    00:21:53.270 : :Chapter 04
    00:29:56.377 : :Chapter 05
    00:35:10.024 : :Chapter 06
    00:41:51.717 : :Chapter 07
    00:51:53.401 : :Chapter 08
    00:58:35.553 : :Chapter 09
    01:08:16.925 : :Chapter 10
    01:17:40.738 : :Chapter 11
    01:25:28.539 : :Chapter 12
    01:33:14.004 : :Chapter 13
    01:37:33.972 : :Chapter 14
    01:41:38.216 : :Chapter 15
    01:45:32.325 : :Chapter 16

    скриншоты:

    • Machine
    • 33
    • Пол: Мужской

    • Стаж: 8 месяцев 15 дней

    • Сообщений: 473

    • Откуда: Raccoon City

    • Репутация: 21238


  • Создавать темы 14-Июн-2016 07:03 (спустя 3 часа)

    kratos, В каждую часть под спойлеры, добавь соответствующие Постеры!
    Показать сообщения:    
    Главная » Фильмы » Зарубежные Фильмы » Сборники

    Текущее время: 19-Янв 07:10

    Часовой пояс: UTC + 5



    Вы не можете начинать темы
    Вы не можете отвечать на сообщения
    Вы не можете редактировать свои сообщения
    Вы не можете голосовать в опросах
    Вы не можете прикреплять файлы к сообщениям
    Вы не можете скачивать файлы
    Вы не можете удалять свои сообщения
    Firebit.red Torrent-Tracker :: 2016-2017 FBR Team Torrenpier pack by Baxrayder Supported by Media Portal Uztor.net