Футурама: Квадрология / Futurama: Quadrilogy (Питер Аванзино, Дуэйн Кэри-Хилл) [2007-2009, Мультфильм, HDRip] Dub :: FireBit.Red
Регистрация ·
Имя: Пароль:  
· Забыли пароль?


 Футурама: Квадрология / Futurama: Quadrilogy (Питер Аванзино, Дуэйн Кэри-Хилл) [2007-2009, Мультфильм, HDRip] Dub

Главная » Мультфильмы » Зарубежные мультфильмы » Сборники
 
Автор Сообщение
  • LANIGIRO ®
  • 3
  • Пол: Мужской

  • Стаж: 8 месяцев 16 дней

  • Сообщений: 1638

  • Откуда: Самарканд

  • Репутация: 1019


  • Создавать темы 06-Май-2016 20:27

    -КОЛЛЕКЦИЯ ПОЛНОМЕТРАЖНЫХ ФИЛЬМОВ "ФУТУРАМЫ"- Список фильмов:
    1. Футурама: Большой куш Бендера
    2. Футурама: Зверь с миллиардом спин
    3. Футурама: Игра Бендера
    4. Футурама: В дикие зелёные дали

    -

    Большой куш Бендера (2007)

    Большой куш Бендера / Вender's Вig score- Год: 2007
    Производство: США
    Жанр: Мультфильм
    Продолжительность: 01:28:50
    Перевод: Профессиональный (полное дублирование) (2х2)
    Субтитры: Отсутствуют-Режиссер: Дуэйн Кэри-Хилл
    Сценаристы: Дэвид И. Коэн, Кен Килер, Мэтт Гроунинг-Актеры: Билли Уэст, Джон Ди Маджио, Доун Льюис, Дэвид Херман, Кэт Сауси, Кэти Сагал, Лоурен Том, Морис ЛаМарш, Тресс МакНилл, Фил ЛаМарр-Описание:
    Когда злые инопланетяне-нудисты устраивают кибер-атаку на Планетный Экспресс, они обнаруживают шокирующий факт: секрет путешествий во времени волшебным вытатуирован на ягодицах Фрая. Используя своё окольное програмное обеспечение, чтобы контролировать Бендера, они засылают робота в прошлое, чтобы разграблять величайшие сокровищницы Земли. Волнение Бендером пространства и времени приводит к ужасным последствиям, когда он сталкивается с Эл Гором во время пересчёта голосов в 2000 году…

    Дата мировой премьеры: 27 ноября 2007-Качество видео: HDRip
    Формат: AVI
    Видео кодек: XVID
    Видео: XviD, 720x416, 1 834 Kbps, 23.976 fps
    Аудио кодек: AC3
    Аудио: AC-3, 48000 Hz, 448 Kbps, 6 ch.

    MI

    File: H:\LANIGIRO\Фильмы и видео\Futurama 4 in 1 (~спам~)\Futurama - Bolshoy Kush Bendera (2007) ~спам~.avi
    General
    Complete name : H:\LANIGIRO\Фильмы и видео\Futurama 4 in 1 (~спам~)\Futurama - Bolshoy Kush Bendera (2007) ~спам~.avi
    Format : AVI
    Format/Info : Audio Video Interleave
    File size : 1.42 GiB
    Duration : 1h 28mn
    Overall bit rate : 2 288 Kbps
    Writing application : VirtualDubMod 1.5.4.1 (build 2178/release)
    Writing library : VirtualDubMod build 2178/release
    Video
    ID : 0
    Format : MPEG-4 Visual
    Format profile : Simple@L0
    Format settings, BVOP : No
    Format settings, QPel : No
    Format settings, GMC : No warppoints
    Format settings, Matrix : Default (H.263)
    Codec ID : XVID
    Codec ID/Hint : XviD
    Duration : 1h 28mn
    Bit rate : 1 834 Kbps
    Width : 720 pixels
    Height : 416 pixels
    Display aspect ratio : 1.731
    Frame rate : 23.976 fps
    Color space : YUV
    Chroma subsampling : 4:2:0
    Bit depth : 8 bits
    Scan type : Progressive
    Compression mode : Lossy
    Bits/(Pixel*Frame) : 0.255
    Stream size : 1.14 GiB (80%)
    Writing library : XviD 1.1.2 (UTC 2006-11-01)
    Audio
    ID : 1
    Format : AC-3
    Format/Info : Audio Coding 3
    Mode extension : CM (complete main)
    Format settings, Endianness : Big
    Codec ID : 2000
    Duration : 1h 28mn
    Bit rate mode : Constant
    Bit rate : 448 Kbps
    Channel(s) : 6 channels
    Channel positions : Front: L C R, Side: L R, LFE
    Sampling rate : 48.0 KHz
    Bit depth : 16 bits
    Compression mode : Lossy
    Delay relative to video : 16ms
    Stream size : 285 MiB (20%)
    Alignment : Split accross interleaves
    Interleave, duration : 96 ms (2.30 video frames)
    Interleave, preload duration : 96 ms
    Language : English
    -Скриншоты-
    -

    Зверь с миллиардом спин (2008)

    Зверь с миллиардом спин / Тhe Вeast with a billion backs- Год: 2008
    Производство: США
    Жанр: Мультфильм
    Продолжительность: 01:25:10
    Перевод: Профессиональный (полное дублирование) (2х2)
    Субтитры: Отсутствуют-Режиссер: Питер Аванзино
    Сценаристы: Дэвид И. Коэн, Майкл Роу, Мэтт Гроунинг-Актеры: Билли Уэст, Джон Ди Маджио, Дэвид Кросс, Дэвид Херман, Дэн Кастелланета, Кэти Сагал, Лоурен Том, Морис ЛаМарш, Тресс МакНилл, Фил ЛаМарр-Описание:
    События происходят непосредственно после "Большого куша Бендера" (см. предыдущий спойлер).
    Огромный раскол в пространстве и времени позволяет отвратительному, размером с планету монстру из другой вселенной проникнуть на Землю. Он берёт под контроль Фрая, делая из него Папу новой религии, которая охватывает всю планету и в последствие приводит к тому, что население покидает Землю, оставляя её в руках роботов.

    Дата мировой премьеры: 24 июня 2008-Качество видео: HDRip
    Формат: AVI
    Видео кодек: XVID
    Видео: XviD, 720x384, 1 991 Kbps, 25.000 fps
    Аудио кодек: AC3
    Аудио: AC-3, 48000 Hz, 384 Kbps, 6 ch.

    MI

    H:\LANIGIRO\Фильмы и видео\Futurama 4 in 1 (~спам~)\Futurama - Zver S Milliardom Spin (2008) ~спам~.avi
    General
    Complete name : H:\LANIGIRO\Фильмы и видео\Futurama 4 in 1 (~спам~)\Futurama - Zver S Milliardom Spin (2008) ~спам~.avi
    Format : AVI
    Format/Info : Audio Video Interleave
    File size : 1.42 GiB
    Duration : 1h 25mn
    Overall bit rate : 2 384 Kbps
    Movie name : FUTURAMA
    Director : Igel Video
    Subject : FUTURAMA
    Writing application : Nandub v1.0rc2
    Writing library : Nandub build 1853/release
    Copyright : Кинозал.ТВ - FILMS
    Video #0
    ID : 0
    Format : MPEG-4 Visual
    Format profile : Advanced Simple@L5
    Format settings, BVOP : 1
    Format settings, QPel : No
    Format settings, GMC : No warppoints
    Format settings, Matrix : Default (H.263)
    Muxing mode : Packed bitstream
    Codec ID : XVID
    Codec ID/Hint : XviD
    Duration : 1h 25mn
    Bit rate : 1 991 Kbps
    Width : 720 pixels
    Height : 384 pixels
    Display aspect ratio : 1.85:1
    Frame rate : 25.000 fps
    Color space : YUV
    Chroma subsampling : 4:2:0
    Bit depth : 8 bits
    Scan type : Progressive
    Compression mode : Lossy
    Bits/(Pixel*Frame) : 0.288
    Stream size : 1.18 GiB (83%)
    Writing library : XviD 1.1.0 (UTC 2005-11-22)
    Audio #1
    ID : 1
    Format : AC-3
    Format/Info : Audio Coding 3
    Mode extension : CM (complete main)
    Format settings, Endianness : Big
    Codec ID : 2000
    Duration : 1h 25mn
    Bit rate mode : Constant
    Bit rate : 384 Kbps
    Channel(s) : 6 channels
    Channel positions : Front: L C R, Side: L R, LFE
    Sampling rate : 48.0 KHz
    Bit depth : 16 bits
    Compression mode : Lossy
    Stream size : 234 MiB (16%)
    Alignment : Split accross interleaves
    Interleave, duration : 40 ms (1.00 video frame)
    Interleave, preload duration : 500 ms
    -Скриншоты-
    -

    Игра Бендера (2008)

    Игра Бендера / Вender's game- Год: 2008
    Производство: США
    Жанр: Мультфильм
    Продолжительность: 01:27:27
    Перевод: Профессиональный (полное дублирование) (2х2)
    Субтитры: Отсутствуют-Режиссер: Дуэйн Кэри-Хилл
    Сценаристы: Мэтт Гроунинг, Дэвид И. Коэн, Эрик Хорстед-Актеры: Билли Уэст, Кэти Сагал, Джон Ди Маджио, Тресс МакНилл, Морис ЛаМарш, Фил ЛаМарр, Лоурен Том, Дэвид Херман, Кэт Сауси, Фрэнк Уэлкер-Описание:
    Когда цены на топливо взлетают до небес, команда Планеты Экспресс отправляется в новое опасное путешествие к единственному на свете источнику темной материи — топливу для всех космических кораблей. Но глубоко под землей наши герои попадают в очень необычное место… средневековую страну!!! с драконами, магами и "обдолбанными" рыцарями, которые подозрительно похожи на Бендера. Припаркуйте свой автомобиль, оседлайте единорога и приготовьтесь к захватывающему зрелищу…

    Дата мировой премьеры: 3 ноября 2008-Качество видео: HDRip
    Формат: MKV
    Видео кодек: AVC
    Видео: AVC, 1280x720, 1 730 Kbps, 23.976 fps
    Аудио кодек: AC3
    Аудио Ru / En: AAC, 48000 Hz, 448 Kbps, 6 ch.

    MI

    H:\LANIGIRO\Фильмы и видео\Futurama 4 in 1 (~спам~)\Futurama - Igra Bendera (2008) ~спам~.mkv
    General
    Unique ID : 204944176223319787789951041580018652328 (0x9A2ED006013D4FDEA4BE2E1B3BB754A8)
    Complete name : H:\LANIGIRO\Фильмы и видео\Futurama 4 in 1 (~спам~)\Futurama - Igra Bendera (2008) ~спам~.mkv
    Format : Matroska
    Format version : Version 1
    File size : 1.06 GiB
    Duration : 1h 27mn
    Overall bit rate : 1 730 Kbps
    Encoded by : Woland
    Encoded date : UTC 2009-06-21 11:23:41
    Writing application : mkvmerge v2.5.2 ('Stranger in your Soul') built on Feb 28 2009 18:58:17
    Writing library : x264+MeGUI+NeroAAC
    TITLE : Futurama: Bender's Game
    DATE_RELEASED : 2008
    Attachment : Yes
    Video #1
    ID : 1
    Format : AVC
    Format/Info : Advanced Video Codec
    Format profile : High@L4.0
    Format settings, CABAC : Yes
    Format settings, ReFrames : 8 frames
    Codec ID : V_MPEG4/ISO/AVC
    Duration : 1h 27mn
    Nominal bit rate : 1 305 Kbps
    Width : 1 280 pixels
    Height : 720 pixels
    Display aspect ratio : 16:9
    Frame rate mode : Constant
    Frame rate : 23.976 fps
    Color space : YUV
    Chroma subsampling : 4:2:0
    Bit depth : 8 bits
    Scan type : Progressive
    Bits/(Pixel*Frame) : 0.059
    Title : Футурама: Игра Бендера
    Writing library : x264 core 66 r1093M 1df50b9
    Encoding settings : cabac=1 / ref=8 / deblock=1:0:0 / analyse=0x3:0x133 / me=umh / subme=7 / psy_rd=1.0:0.0 / mixed_ref=1 / me_range=16 / chroma_me=1 / trellis=2 / 8x8dct=1 / cqm=0 / deadzone=21,11 / chroma_qp_offset=-2 / threads=3 / nr=0 / decimate=0 / mbaff=0 / bframes=3 / b_pyramid=1 / b_adapt=2 / b_bias=0 / direct=3 / wpredb=1 / keyint=250 / keyint_min=25 / scenecut=40(pre) / rc=2pass / bitrate=1305 / ratetol=1.0 / qcomp=0.60 / qpmin=10 / qpmax=51 / qpstep=4 / cplxblur=20.0 / qblur=0.5 / ip_ratio=1.40 / pb_ratio=1.30 / aq=1:1.00
    Default : Yes
    Forced : No
    Audio #2
    ID : 2
    Format : AAC
    Format/Info : Advanced Audio Codec
    Format profile : LC
    Codec ID : A_AAC
    Duration : 1h 27mn
    Channel(s) : 6 channels
    Channel positions : Front: L C R, Side: L R, LFE
    Sampling rate : 48.0 KHz
    Compression mode : Lossy
    Title : Русский [5.1]
    Language : Russian
    Default : Yes
    Forced : No
    Audio #3
    ID : 3
    Format : AAC
    Format/Info : Advanced Audio Codec
    Format profile : LC
    Codec ID : A_AAC
    Duration : 1h 27mn
    Channel(s) : 6 channels
    Channel positions : Front: L C R, Side: L R, LFE
    Sampling rate : 48.0 KHz
    Compression mode : Lossy
    Title : English [5.1]
    Language : English
    Default : No
    Forced : No
    Text #4
    ID : 4
    Format : UTF-8
    Codec ID : S_TEXT/UTF8
    Codec ID/Info : UTF-8 Plain Text
    Title : Русский
    Language : Russian
    Default : No
    Forced : No
    Text #5
    ID : 5
    Format : UTF-8
    Codec ID : S_TEXT/UTF8
    Codec ID/Info : UTF-8 Plain Text
    Title : English
    Language : English
    Default : No
    Forced : No
    Text #6
    ID : 6
    Format : UTF-8
    Codec ID : S_TEXT/UTF8
    Codec ID/Info : UTF-8 Plain Text
    Title : English (comments)
    Language : English
    Default : No
    Forced : No
    -Скриншоты-
    -

    В дикую зеленую даль (2009)

    В дикую зеленую даль / Into the Wild Green Yonder- Год: 2009
    Производство: США
    Жанр: Мультфильм
    Продолжительность: 01:29:13
    Перевод: Профессиональный (полное дублирование) (2х2)
    Субтитры: Отсутствуют-Режиссер: Питер Аванзино
    Сценаристы: Дэвид И. Коэн, Майкл Роу, Мэтт Гроунинг-Актеры: Билли Уэст, Джон Ди Маджио, Доун Льюис, Дэвид Херман, Кэти Сагал, Лоурен Том, Морис ЛаМарш, Снуп Догг, Тресс МакНилл, Фил ЛаМарр-Описание:
    Реальная эпическая научно-фантастическая история, которая вовлекает персонажей в древнее сражение, длившееся на протяжении миллиардов лет, и наша команда, конечно, оказывается в её эпицентре…

    Дата мировой премьеры: 23 февраля 2009-Качество видео: HDRip
    Формат: AVI
    Видео кодек: XVID
    Видео: XviD, 720x384, 2 189 Kbps, 23.976 fps
    Аудио кодек: AC3
    Аудио: AC-3, 48000 Hz, 448 Kbps, 6 ch.

    MI

    H:\LANIGIRO\Фильмы и видео\Futurama 4 in 1 (~спам~)\Futurama - V Dikuyu Zelenuyu Dal (2009) ~спам~.avi
    General
    Complete name : H:\LANIGIRO\Фильмы и видео\Futurama 4 in 1 (~спам~)\Futurama - V Dikuyu Zelenuyu Dal (2009) ~спам~.avi
    Format : AVI
    Format/Info : Audio Video Interleave
    File size : 1.36 GiB
    Duration : 1h 29mn
    Overall bit rate : 2 189 Kbps
    Writing application : VirtualDubMod 1.5.10.2 (build 2542/release)
    Writing library : VirtualDubMod build 2542/release
    Video #0
    ID : 0
    Format : MPEG-4 Visual
    Format profile : Advanced Simple@L5
    Format settings, BVOP : 2
    Format settings, QPel : No
    Format settings, GMC : No warppoints
    Format settings, Matrix : Default (MPEG)
    Muxing mode : Packed bitstream
    Codec ID : XVID
    Codec ID/Hint : XviD
    Duration : 1h 29mn
    Bit rate : 1 732 Kbps
    Width : 704 pixels
    Height : 384 pixels
    Display aspect ratio : 1.85:1
    Frame rate : 23.976 fps
    Color space : YUV
    Chroma subsampling : 4:2:0
    Bit depth : 8 bits
    Scan type : Progressive
    Compression mode : Lossy
    Bits/(Pixel*Frame) : 0.267
    Stream size : 1.08 GiB (79%)
    Writing library : XviD 1.2.0.dev47 (UTC 2006-11-01)
    Audio #1
    ID : 1
    Format : AC-3
    Format/Info : Audio Coding 3
    Mode extension : CM (complete main)
    Format settings, Endianness : Big
    Codec ID : 2000
    Duration : 1h 29mn
    Bit rate mode : Constant
    Bit rate : 448 Kbps
    Channel(s) : 6 channels
    Channel positions : Front: L C R, Side: L R, LFE
    Sampling rate : 48.0 KHz
    Bit depth : 16 bits
    Compression mode : Lossy
    Stream size : 286 MiB (20%)
    Alignment : Split accross interleaves
    Interleave, duration : 42 ms (1.00 video frame)
    Interleave, preload duration : 500 ms
    -Скриншоты-
    -ПРИЯТНОГО ФУТУРАМНОГО ПРОСМОТРА!-
    • giga
    • 887
    • Пол: Мужской

    • Стаж: 7 месяцев 8 дней

    • Сообщений: 3

    • Репутация: 0


  • Создавать темы 06-Июл-2016 01:59 (спустя 1 месяц 30 дней)

    раздача будет вообще7777777
    Показать сообщения:    
    Главная » Мультфильмы » Зарубежные мультфильмы » Сборники

    Текущее время: 19-Янв 07:15

    Часовой пояс: UTC + 5



    Вы не можете начинать темы
    Вы не можете отвечать на сообщения
    Вы не можете редактировать свои сообщения
    Вы не можете голосовать в опросах
    Вы не можете прикреплять файлы к сообщениям
    Вы не можете скачивать файлы
    Вы не можете удалять свои сообщения
    Firebit.red Torrent-Tracker :: 2016-2017 FBR Team Torrenpier pack by Baxrayder Supported by Media Portal Uztor.net