Совместная поездка: Дилогия / Ride Along: Dilogy (Тим Стори / Tim Story) [2014 - 2016 г., Боевик, комедия, BDRip 1080p] :: FireBit.Red
Регистрация ·
Имя: Пароль:  
· Забыли пароль?


 Совместная поездка: Дилогия / Ride Along: Dilogy (Тим Стори / Tim Story) [2014 - 2016 г., Боевик, комедия, BDRip 1080p]

Главная » Фильмы » Зарубежные Фильмы » Сборники
 
Автор Сообщение
  • ARROW - СТРЕЛА ®
  • 678
  • Пол: Мужской

  • Стаж: 7 месяцев 23 дня

  • Сообщений: 25

  • Откуда: Гулистан

  • Репутация: 12


  • Создавать темы 26-Июн-2016 23:04

    -Совместная поездка: Дилогия / Ride Along: Dilogy- -Год выпуска: 2014 - 2016
    Жанр: Боевик, комедия
    Качество: BDRip 1080p
    Формат: MKV
    -

    Совместная поездка / Ride Along

    -Совместная поездка / Ride Along- -Год выпуска: 2014
    Страна: США
    Жанр: Боевик, комедия
    Продолжительность: 01:39:31
    Перевод: Профессиональный (полное дублирование) Лицензия--Субтитры: Русские (полные, форсированные), английские (обычные, SDH, SDH-Colored)--Режиссер: Тим Стори / Tim Story--В ролях: Айс Кьюб, Кевин Харт, Лоренс Фишбёрн, Джон Легуизамо, Брюс МакГилл, Тика Самптер, Брайан Коллен, Драгош Букур, Гари Оуэн, Джейкоб Латимор--Описание: Вот уже два года охранник средней школы Бен только то и делает, что пытается доказать опытному детективу Джеймсу, что достоин его сестры Анджелы, своей будущей невесты. На этот раз, как следует из фильма «Совместная поездка» (Ride Along), он предпринимает очередной шаг, что влечет за собой самые сумасшедшие 24 часа в его жизни. Когда Бен, наконец, принят в полицейскую академию, он думает, что наконец-то заслужил руку и сердце Анджелы, и просит согласия будущего шурина на свадьбу. А тот, в свою очередь, приглашает героя кинокартины «Совместная поездка» отправиться вместе в рейд по городу. Но когда безумная ночь приведет их к самому печально известному бандиту в городе, Джеймс поймет, что слишком болтливый язык его нового напарника так же опасен, как и смертоносные пули.--Качество: BDRip 1080p
    Формат: MKV
    Видео кодек: AVC
    Аудио кодек: AC3
    Видео: AVC / 1920x800, 7 500 Kbps, 23.976 fps, 8 bits
    Аудио#1: Russian / AC3, 448 Kbps, 6 ch, 48.0 KHz, 16 bits
    Аудио#2: English / AC3, 384 Kbps, 6 ch, 48.0 KHz, 16 bits

    M|I

    General
    Unique ID : 182535291579043388844846767139049562343 (0x895304B598E29FE89D5748A2CDB5E0E7)
    Complete name : F:\Совместная поездка - Дилогия\Совместная поездка. 2014.BDRip 1080p.mkv
    Format : Matroska
    Format version : Version 4 / Version 2
    File size : 5.79 GiB
    Duration : 1h 39mn
    Overall bit rate : 8 331 Kbps
    Movie name : Совместная поездка.(2014).BLU-RAY.180p.[-=DoMiNo=-]
    Encoded date : UTC 2015-09-26 14:36:14
    Writing application : mkvmerge v8.4.0 ('A better way to fly') 64bit
    Writing library : libebml v1.3.1 + libmatroska v1.4.2
    DURATION : 01:35:01.661000000
    NUMBER_OF_FRAMES : 2281
    NUMBER_OF_BYTES : 74133
    _STATISTICS_WRITING_APP : mkvmerge v8.4.0 ('A better way to fly') 64bit
    _STATISTICS_WRITING_DATE_UTC : 2015-09-26 14:36:14
    _STATISTICS_TAGS : BPS DURATION NUMBER_OF_FRAMES NUMBER_OF_BYTES
    Video
    ID : 1
    Format : AVC
    Format/Info : Advanced Video Codec
    Format profile : High@L4.1
    Format settings, CABAC : Yes
    Format settings, ReFrames : 5 frames
    Codec ID : V_MPEG4/ISO/AVC
    Bit rate : 7 500 Kbps
    Width : 1 920 pixels
    Height : 800 pixels
    Display aspect ratio : 2.40:1
    Frame rate mode : Variable
    Original frame rate : 23.976 fps
    Color space : YUV
    Chroma subsampling : 4:2:0
    Bit depth : 8 bits
    Scan type : Progressive
    Bits/(Pixel*Frame) : 0.204
    Title : Совместная поездка
    Writing library : x264 core 148 r2597M e86f3a1
    Encoding settings : cabac=1 / ref=5 / deblock=1:-3:-3 / analyse=0x3:0x113 / me=umh / subme=11 / psy=1 / psy_rd=1.00:0.50 / mixed_ref=1 / me_range=32 / chroma_me=1 / trellis=2 / 8x8dct=1 / cqm=0 / deadzone=21,11 / fast_pskip=0 / chroma_qp_offset=-4 / threads=5 / lookahead_threads=1 / sliced_threads=0 / nr=0 / decimate=1 / interlaced=0 / bluray_compat=0 / constrained_intra=0 / bframes=8 / b_pyramid=2 / b_adapt=2 / b_bias=0 / direct=3 / weightb=1 / open_gop=0 / weightp=2 / keyint=230 / keyint_min=23 / scenecut=40 / intra_refresh=0 / rc=2pass / mbtree=0 / bitrate=7500 / ratetol=1.0 / qcomp=0.60 / qpmin=0 / qpmax=69 / qpstep=4 / cplxblur=20.0 / qblur=0.5 / ip_ratio=1.40 / pb_ratio=1.30 / aq=1:1.00
    Language : English
    Default : Yes
    Forced : No
    DURATION : 01:39:31.466000000
    NUMBER_OF_FRAMES : 143172
    NUMBER_OF_BYTES : 5594983440
    _STATISTICS_WRITING_APP : mkvmerge v8.4.0 ('A better way to fly') 64bit
    _STATISTICS_WRITING_DATE_UTC : 2015-09-26 14:36:14
    _STATISTICS_TAGS : BPS DURATION NUMBER_OF_FRAMES NUMBER_OF_BYTES
    Audio #1
    ID : 2
    Format : AC-3
    Format/Info : Audio Coding 3
    Mode extension : CM (complete main)
    Format settings, Endianness : Big
    Codec ID : A_AC3
    Duration : 1h 39mn
    Bit rate mode : Constant
    Bit rate : 448 Kbps
    Channel count : 6 channels
    Channel positions : Front: L C R, Side: L R, LFE
    Sampling rate : 48.0 KHz
    Bit depth : 16 bits
    Compression mode : Lossy
    Delay relative to video : 27ms
    Stream size : 319 MiB (5%)
    Title : Профессиональный (полное дублирование) CEE
    Language : Russian
    Default : Yes
    Forced : No
    DURATION : 01:39:31.456000000
    NUMBER_OF_FRAMES : 186608
    NUMBER_OF_BYTES : 334401536
    _STATISTICS_WRITING_APP : mkvmerge v8.4.0 ('A better way to fly') 64bit
    _STATISTICS_WRITING_DATE_UTC : 2015-09-26 14:36:14
    _STATISTICS_TAGS : BPS DURATION NUMBER_OF_FRAMES NUMBER_OF_BYTES
    Audio #2
    ID : 3
    Format : AC-3
    Format/Info : Audio Coding 3
    Mode extension : CM (complete main)
    Format settings, Endianness : Big
    Codec ID : A_AC3
    Duration : 1h 39mn
    Bit rate mode : Constant
    Bit rate : 384 Kbps
    Channel count : 6 channels
    Channel positions : Front: L C R, Side: L R, LFE
    Sampling rate : 48.0 KHz
    Bit depth : 16 bits
    Compression mode : Lossy
    Stream size : 273 MiB (5%)
    Title : ENG
    Language : English
    Default : No
    Forced : No
    Text #1
    ID : 4
    Format : UTF-8
    Codec ID : S_TEXT/UTF8
    Codec ID/Info : UTF-8 Plain Text
    Title : RUS.FORCED
    Default : Yes
    Forced : No
    Text #2
    ID : 5
    Format : UTF-8
    Codec ID : S_TEXT/UTF8
    Codec ID/Info : UTF-8 Plain Text
    Title : RUS
    Default : No
    Forced : No
    Text #3
    ID : 6
    Format : UTF-8
    Codec ID : S_TEXT/UTF8
    Codec ID/Info : UTF-8 Plain Text
    Title : ENG.SDH.COLORED
    Default : No
    Forced : No
    Text #4
    ID : 7
    Format : UTF-8
    Codec ID : S_TEXT/UTF8
    Codec ID/Info : UTF-8 Plain Text
    Title : ENG.SDH
    Default : No
    Forced : No
    Text #5
    ID : 8
    Format : UTF-8
    Codec ID : S_TEXT/UTF8
    Codec ID/Info : UTF-8 Plain Text
    Title : ENG
    Default : No
    Forced : No
    Menu
    00:00:00.000 : :Глава 1
    00:05:09.183 : :Глава 2
    00:10:37.386 : :Глава 3
    00:14:40.921 : :Глава 4
    00:19:46.435 : :Глава 5
    00:25:03.418 : :Глава 6
    00:31:16.749 : :Глава 7
    00:35:46.394 : :Глава 8
    00:40:51.657 : :Глава 9
    00:44:31.085 : :Глава 10
    00:50:40.162 : :Глава 11
    00:54:49.995 : :Глава 12
    01:00:00.930 : :Глава 13
    01:06:13.135 : :Глава 14
    01:11:47.303 : :Глава 15
    01:18:44.553 : :Глава 16
    01:22:53.593 : :Глава 17
    01:26:27.974 : :Глава 18
    01:30:09.278 : :Глава 19
    01:35:27.346 : :Глава 20
    01:39:31.215 : :Глава 21

    Миссия в Майами / Ride Along 2

    -Миссия в Майами / Ride Along 2- -Год выпуска: 2016
    Страна: США
    Жанр: Боевик, комедия
    Продолжительность: 01:41:30
    Перевод: Профессиональный (дублированный) [iTunes]--Режиссер: Тим Стори / Tim Story--В ролях: Айс Кьюб, Кевин Харт, Тика Самптер, Бенджамин Брэтт, Оливия Манн, Кен Жонг, Брюс МакГилл, Майкл Эдвард Роуз, Шерри Шеперд--Описание: Накануне собственной свадьбы Бен отправляется с братом своей будущей жены, крутым полицейским Джеймсом, в Майами, чтобы схватить наркодельца.--Качество: BDRip 1080p
    Формат: MKV
    Видео кодек: AVC
    Аудио кодек: AC3
    Видео: AVC / 1920x800, 9 283 Kbps, 23.976 fps, 8 bits
    Аудио#1: Russian / AC3, 384 Kbps, 6 ch, 48.0 KHz, 16 bits
    Аудио#2: English / AC3, 640 Kbps, 6 ch, 48.0 KHz, 16 bits

    M|I

    General
    Unique ID : 233551328188922143985343959286971584815 (0xAFB45982BB1DD19497C8D0B4D247512F)
    Complete name : F:\Совместная поездка - Дилогия\Миссия в Майами. 2016.BDRip.1080p.mkv
    Format : Matroska
    Format version : Version 4 / Version 2
    File size : 7.31 GiB
    Duration : 1h 41mn
    Overall bit rate : 10.3 Mbps
    Encoded date : UTC 2016-05-25 17:03:09
    Writing application : mkvmerge v8.3.0 ('Over the Horizon') 64bit
    Writing library : libebml v1.3.1 + libmatroska v1.4.2
    DURATION : 01:41:28.416000000
    NUMBER_OF_FRAMES : 190263
    NUMBER_OF_BYTES : 292243968
    _STATISTICS_WRITING_APP : mkvmerge v8.3.0 ('Over the Horizon') 64bit
    _STATISTICS_WRITING_DATE_UTC : 2016-05-25 17:03:09
    _STATISTICS_TAGS : BPS DURATION NUMBER_OF_FRAMES NUMBER_OF_BYTES
    Video
    ID : 1
    Format : AVC
    Format/Info : Advanced Video Codec
    Format profile : High@L4.1
    Format settings, CABAC : Yes
    Format settings, ReFrames : 5 frames
    Codec ID : V_MPEG4/ISO/AVC
    Duration : 1h 41mn
    Bit rate : 9 283 Kbps
    Width : 1 920 pixels
    Height : 800 pixels
    Display aspect ratio : 2.40:1
    Frame rate mode : Constant
    Frame rate : 23.976 fps
    Color space : YUV
    Chroma subsampling : 4:2:0
    Bit depth : 8 bits
    Scan type : Progressive
    Bits/(Pixel*Frame) : 0.252
    Stream size : 6.44 GiB (88%)
    Writing library : x264 core 148 r2665 a01e339
    Encoding settings : cabac=1 / ref=5 / deblock=1:0:0 / analyse=0x3:0x133 / me=umh / subme=7 / psy=1 / psy_rd=1.00:0.00 / mixed_ref=1 / me_range=16 / chroma_me=1 / trellis=1 / 8x8dct=1 / cqm=0 / deadzone=21,11 / fast_pskip=0 / chroma_qp_offset=-2 / threads=18 / lookahead_threads=3 / sliced_threads=0 / nr=0 / decimate=1 / interlaced=0 / bluray_compat=0 / constrained_intra=0 / bframes=3 / b_pyramid=2 / b_adapt=1 / b_bias=0 / direct=1 / weightb=1 / open_gop=0 / weightp=2 / keyint=250 / keyint_min=23 / scenecut=40 / intra_refresh=0 / rc_lookahead=40 / rc=2pass / mbtree=1 / bitrate=9283 / ratetol=1.0 / qcomp=0.60 / qpmin=0 / qpmax=69 / qpstep=4 / cplxblur=20.0 / qblur=0.5 / ip_ratio=1.40 / aq=1:1.00
    Language : English
    Default : Yes
    Forced : No
    DURATION : 01:41:30.052000000
    NUMBER_OF_FRAMES : 146015
    NUMBER_OF_BYTES : 7066863066
    _STATISTICS_WRITING_APP : mkvmerge v8.3.0 ('Over the Horizon') 64bit
    _STATISTICS_WRITING_DATE_UTC : 2016-05-25 17:03:09
    _STATISTICS_TAGS : BPS DURATION NUMBER_OF_FRAMES NUMBER_OF_BYTES
    Audio #1
    ID : 2
    Format : AC-3
    Format/Info : Audio Coding 3
    Mode extension : CM (complete main)
    Format settings, Endianness : Big
    Codec ID : A_AC3
    Duration : 1h 41mn
    Bit rate mode : Constant
    Bit rate : 384 Kbps
    Channel count : 6 channels
    Channel positions : Front: L C R, Side: L R, LFE
    Sampling rate : 48.0 KHz
    Bit depth : 16 bits
    Compression mode : Lossy
    Delay relative to video : 24ms
    Stream size : 279 MiB (4%)
    Default : Yes
    Forced : No
    Audio #2
    ID : 3
    Format : AC-3
    Format/Info : Audio Coding 3
    Mode extension : CM (complete main)
    Format settings, Endianness : Big
    Codec ID : A_AC3
    Duration : 1h 41mn
    Bit rate mode : Constant
    Bit rate : 640 Kbps
    Channel count : 6 channels
    Channel positions : Front: L C R, Side: L R, LFE
    Sampling rate : 48.0 KHz
    Bit depth : 16 bits
    Compression mode : Lossy
    Stream size : 465 MiB (6%)
    Language : English
    Default : No
    Forced : No
    Menu
    00:00:00.000 : en:00:00:00.000
    00:03:29.584 : en:00:03:29.584
    00:10:26.751 : en:00:10:26.751
    00:14:00.089 : en:00:14:00.089
    00:17:21.040 : en:00:17:21.040
    00:22:33.269 : en:00:22:33.269
    00:27:48.876 : en:00:27:48.876
    00:34:33.530 : en:00:34:33.530
    00:39:25.905 : en:00:39:25.905
    00:42:26.002 : en:00:42:26.002
    00:46:06.013 : en:00:46:06.013
    00:50:51.173 : en:00:50:51.173
    00:56:40.689 : en:00:56:40.689
    01:00:04.726 : en:01:00:04.726
    01:06:57.680 : en:01:06:57.680
    01:13:09.051 : en:01:13:09.051
    01:19:35.396 : en:01:19:35.396
    01:23:06.732 : en:01:23:06.732
    01:31:19.766 : en:01:31:19.766
    01:36:58.938 : en:01:36:58.938



    Последний раз редактировалось: ARROW - СТРЕЛА (2016-06-27 07:24), всего редактировалось 1 раз
    • Руси4
    • 938
    • Пол: Мужской

    • Стаж: 7 месяцев 5 дней

    • Сообщений: 31

    • Откуда: Tash City - Parkent StreeT - House 123/36

    • Репутация: 100


  • Создавать темы 26-Июн-2016 23:18 (спустя 13 минут)

    Не видел этого Фильма вообще ,Сохраню себе +
    • ARROW - СТРЕЛА ®
    • 678
    • Пол: Мужской

    • Стаж: 7 месяцев 23 дня

    • Сообщений: 25

    • Откуда: Гулистан

    • Репутация: 12


  • Создавать темы 26-Июн-2016 23:28 (спустя 10 минут)

    5661Не видел этого Фильма вообще ,Сохраню себе +
    Фильм смешной
    • poseidon.93
    • 1416
    • Пол: Не указан

    • Стаж: 6 месяцев 27 дней

    • Сообщений: 1

    • Репутация: 0


  • Создавать темы 25-Окт-2016 23:27 (спустя 3 месяца 28 дней)

    Классный фильм ток что не кто не скачал 2 месяца уже релиз стоит
    Показать сообщения:    
    Главная » Фильмы » Зарубежные Фильмы » Сборники

    Текущее время: 19-Янв 07:13

    Часовой пояс: UTC + 5



    Вы не можете начинать темы
    Вы не можете отвечать на сообщения
    Вы не можете редактировать свои сообщения
    Вы не можете голосовать в опросах
    Вы не можете прикреплять файлы к сообщениям
    Вы не можете скачивать файлы
    Вы не можете удалять свои сообщения
    Firebit.red Torrent-Tracker :: 2016-2017 FBR Team Torrenpier pack by Baxrayder Supported by Media Portal Uztor.net