Неуловимые: Квадрология (Артем Аксененко) [2015-2016гг., Комедия, Криминал, Приключения, Мелодрама, Триллер, WEB-DLRip] :: FireBit.Red
Регистрация ·
Имя: Пароль:  
· Забыли пароль?


 Неуловимые: Квадрология (Артем Аксененко) [2015-2016гг., Комедия, Криминал, Приключения, Мелодрама, Триллер, WEB-DLRip]

Главная » Фильмы » Фильмы России и стран СНГ » Сборники
 
Автор Сообщение
  • Создавать темы 26-Авг-2016 21:48

    «Молодые изменят мир»
    Год выпуска: 2015-2016
    Страна:
    Жанр: Комедия, Криминал, Приключения, Мелодрама, Триллер
    Продолжительность: 05:25:00
    Перевод: Оригинал
    Режиссеры: Артем Аксененко Жизнь очень часто оказывается несправедливой по отношению к людям, которые не заслуживают подобной участи. Она строит ситуацию таким образом, что выбраться в одиночку из неё становится практически невозможно. Так происходит и в этот раз. Кира обращается за помощью к трем парням, симпатизирующим ей — быковатому Феде, самоуверенному красавчику Артему и компьютерному гению Жене. Парни заключают между собой пакт — «поможем девушке, накажем негодяя, а потом решим, кто станет ее парнем». Четверка главных героев во главе с Кирой продолжает свою борьбу с несправедливостью. Все вместе они придумают, как наказать виновных..

    Неуловимые:

    Неуловимые
    Год выпуска: 2015
    Страна:
    Жанр: Комедия, Криминал, Приключения
    Продолжительность: 01:26:17
    Перевод: Оригинал Режиссеры: Артем Аксененко В ролях: Анвар Халилулаев, Евгений Мундум, Денис Шведов, Александр Сазонов, Александра Бортич, Иван Шахназаров, Илья Маланин, Джемал Тетруашвили, Ксения Баскакова, Павел Юлку
    Ночью в центре Москвы сбита девушка, ей срочно нужна сложнейшая операция. Ее подруга Кира находит виновника, наглого и циничного олигарха Сергея Полянского, который отказывается признать свою вину и помочь пострадавшей. Ему плевать, у него все схвачено. В отчаянии Кира обращается за помощью к трем парням симпатизирующим ей — быковатому Феде, самоуверенному красавчику Артему и компьютерному гению Жене. Парни заключают между собой пакт — «поможем девушке, накажем негодяя, а потом решим, кто станет ее парнем».
    Качество видео: WEB-DLRip
    Формат видео: AVI
    Видео: MPEG-4 Visual, 720x304, 25,0 fps, 1874 kbps
    Аудио: AC-3, 384 Kbps, 2 channels, 48.0 KHz

    MediaInfo:

    Общее
    Полное имя                               : Неуловимые\NeUl0v1m1E.2015.O.WEB-DLRip.1400Mb.avi
    Формат                                   : AVI
    Формат/Информация                        : Audio Video Interleave
    Размер файла                             : 1,37 Гбайт
    Продолжительность                        : 1 ч. 26 м.
    Общий поток                              : 2268 Кбит/сек
    Программа кодирования                    : VirtualDubMod 1.5.10.2 (build 2540/release)
    Библиотека кодирования                   : VirtualDubMod build 2540/release
    Видео
    Идентификатор                            : 0
    Формат                                   : MPEG-4 Visual
    Профиль формата                          : Advanced Simple@L5
    Параметр BVOP формата                    : 2
    Параметр QPel формата                    : Нет
    Параметр GMC формата                     : Без точки перехода
    Параметр матрицы формата                 : Default (MPEG)
    Идентификатор кодека                     : XVID
    Идентификатор кодека/Подсказка           : XviD
    Продолжительность                        : 1 ч. 26 м.
    Битрейт                                  : 1874 Кбит/сек
    Ширина                                   : 720 пикселей
    Высота                                   : 304 пикселя
    Соотношение сторон                       : 2,35:1
    Частота кадров                           : 25,000 кадров/сек
    Цветовое пространство                    : YUV
    Субдискретизация насыщенности            : 4:2:0
    Битовая глубина                          : 8 бит
    Тип развёртки                            : Прогрессивная
    Метод сжатия                             : С потерями
    Бит/(Пиксели*Кадры)                      : 0.342
    Размер потока                            : 1,13 Гбайт (83%)
    Библиотека кодирования                   : XviD 1.2.1 (UTC 2008-12-04)
    Аудио
    Идентификатор                            : 1
    Формат                                   : AC-3
    Формат/Информация                        : Audio Coding 3
    Расширение режима                        : CM (complete main)
    Параметр Endianness формата              : Big
    Идентификатор кодека                     : 2000
    Продолжительность                        : 1 ч. 26 м.
    Вид битрейта                             : Постоянный
    Битрейт                                  : 384 Кбит/сек
    Каналы                                   : 2 канала
    Расположение каналов                     : Front: L R
    Частота                                  : 48,0 КГц
    Частота кадров                           : 31,250 кадров/сек (1536 spf)
    Метод сжатия                             : С потерями
    Размер потока                            : 237 Мбайт (17%)
    Выравнивание                             : Разделение по промежуткам
    Продолжительность промежутка             : 40  мс. (1,00 видеокадр)
    Время предзагрузки промежутка            : 500  мс.

    Неуловимые: Последний герой:

    Неуловимые: Последний герой
    Год выпуска: 2015
    Страна:
    Жанр: Комедия, Криминал, Приключения
    Продолжительность: 01:15:59
    Перевод: Оригинал Режиссеры: Артем Аксененко В ролях: Алена Ивченко, Анвар Халилулаев, Александр Петров, Дмитрий Готсдинер, Владимир Яворский, Александра Бортич, Иван Шахназаров, Илья Маланин, Максим Браматкин Четверка главных героев во главе с Кирой продолжает свою борьбу с несправедливостью. Новая миссия: выследить яхту с крупной партией наркотиков и сдать всех ментам! И почти получилось. Вот только таинственный незнакомец неожиданно взрывает судно наркоторговцев на глазах у полиции и «неуловимых». Кто он — радикальный борец со злом или решил зачем-то подставить ребят? Пока друзья пытаются разобраться, тот сам находит Киру. Теперь она одна знает его мотивы… а еще понимает, что влюбилась по уши. Качество видео: WEB-DLRip
    Формат видео: AVI
    Видео: MPEG-4 Visual, 720x304, 24,0 fps, 2179 kbps
    Аудио: AC-3, 384 Kbps, 2 channels, 48.0 KHz

    MediaInfo:

    Общее
    Полное имя                               : Неуловимые\Neulovimyie.Poslednii.Gheroi.2015.O.WEB-DLRip.1400MB.avi
    Формат                                   : AVI
    Формат/Информация                        : Audio Video Interleave
    Размер файла                             : 1,37 Гбайт
    Продолжительность                        : 1 ч. 15 м.
    Общий поток                              : 2572 Кбит/сек
    Программа кодирования                    : VirtualDubMod 1.5.10.3 | www.virtualdub-fr.org || (build 2550/release)
    Библиотека кодирования                   : VirtualDubMod build 2550/release
    Видео
    Идентификатор                            : 0
    Формат                                   : MPEG-4 Visual
    Профиль формата                          : Advanced Simple@L5
    Параметр BVOP формата                    : 2
    Параметр QPel формата                    : Нет
    Параметр GMC формата                     : Без точки перехода
    Параметр матрицы формата                 : Default (MPEG)
    Идентификатор кодека                     : XVID
    Идентификатор кодека/Подсказка           : XviD
    Продолжительность                        : 1 ч. 15 м.
    Битрейт                                  : 2179 Кбит/сек
    Ширина                                   : 720 пикселей
    Высота                                   : 304 пикселя
    Соотношение сторон                       : 2,35:1
    Частота кадров                           : 24,000 кадра/сек
    Цветовое пространство                    : YUV
    Субдискретизация насыщенности            : 4:2:0
    Битовая глубина                          : 8 бит
    Тип развёртки                            : Прогрессивная
    Метод сжатия                             : С потерями
    Бит/(Пиксели*Кадры)                      : 0.415
    Размер потока                            : 1,16 Гбайт (85%)
    Библиотека кодирования                   : XviD 1.2.1 (UTC 2008-12-04)
    Аудио
    Идентификатор                            : 1
    Формат                                   : AC-3
    Формат/Информация                        : Audio Coding 3
    Расширение режима                        : CM (complete main)
    Параметр Endianness формата              : Big
    Идентификатор кодека                     : 2000
    Продолжительность                        : 1 ч. 15 м.
    Вид битрейта                             : Постоянный
    Битрейт                                  : 384 Кбит/сек
    Каналы                                   : 6 каналов
    Расположение каналов                     : Front: L C R, Side: L R, LFE
    Частота                                  : 48,0 КГц
    Частота кадров                           : 31,250 кадров/сек (1536 spf)
    Метод сжатия                             : С потерями
    Размер потока                            : 209 Мбайт (15%)
    Выравнивание                             : Разделение по промежуткам
    Продолжительность промежутка             : 42  мс. (1,00 видеокадр)
    Время предзагрузки промежутка            : 500  мс.

    Неуловимые: Бангкок:

    Неуловимые: Бангкок
    Год выпуска: 2016
    Страна:
    Жанр: Криминал, Мелодрама, Триллер
    Продолжительность: 01:23:40
    Перевод: Оригинал Режиссеры: Артем Аксененко В ролях: Анвар Халилулаев, Денис Шведов, Александра Бортич, Иван Шахназаров, Илья Маланин Олигарх, которого ребята наказали за то, что он пытался уйти от ответственности после автокатастрофы, решает им отомстить. Ему нужно не только выбраться из тюрьмы в Бангкоке, но и раздобыть деньги, для того чтобы оплатить свой побег. Так ничего не подозревающие друзья оказываются втянутыми в ограбление Таиландского банка.... Качество видео: WEB-DLRip
    Формат видео: AVI
    Видео: MPEG-4 Visual, 720x304, 24,0 fps, 1932 kbps
    Аудио: AC-3, 384 Kbps, 2 channels, 48.0 KHz

    MediaInfo:

    Общее
    Полное имя                               : Неуловимые\NeUloviMie.BangKoK.2O16.O.WEB-DLRip.14OOMB.avi
    Формат                                   : AVI
    Формат/Информация                        : Audio Video Interleave
    Размер файла                             : 1,36 Гбайт
    Продолжительность                        : 1 ч. 23 м.
    Общий поток                              : 2325 Кбит/сек
    Программа кодирования                    : VirtualDubMod 1.5.10.2 (build 2540/release)
    Библиотека кодирования                   : Boilsoft AVI tool build 30012/release
    Видео
    Идентификатор                            : 0
    Формат                                   : MPEG-4 Visual
    Профиль формата                          : Advanced Simple@L5
    Параметр BVOP формата                    : 2
    Параметр QPel формата                    : Нет
    Параметр GMC формата                     : Без точки перехода
    Параметр матрицы формата                 : Выборочная
    Идентификатор кодека                     : XVID
    Идентификатор кодека/Подсказка           : XviD
    Продолжительность                        : 1 ч. 23 м.
    Битрейт                                  : 1932 Кбит/сек
    Ширина                                   : 720 пикселей
    Высота                                   : 304 пикселя
    Соотношение сторон                       : 2,35:1
    Частота кадров                           : 24,000 кадра/сек
    Цветовое пространство                    : YUV
    Субдискретизация насыщенности            : 4:2:0
    Битовая глубина                          : 8 бит
    Тип развёртки                            : Прогрессивная
    Метод сжатия                             : С потерями
    Бит/(Пиксели*Кадры)                      : 0.368
    Размер потока                            : 1,13 Гбайт (83%)
    Библиотека кодирования                   : XviD 1.2.1 (UTC 2008-12-04)
    Аудио
    Идентификатор                            : 1
    Формат                                   : AC-3
    Формат/Информация                        : Audio Coding 3
    Расширение режима                        : CM (complete main)
    Параметр Endianness формата              : Big
    Идентификатор кодека                     : 2000
    Продолжительность                        : 1 ч. 23 м.
    Вид битрейта                             : Постоянный
    Битрейт                                  : 384 Кбит/сек
    Каналы                                   : 2 канала
    Расположение каналов                     : Front: L R
    Частота                                  : 48,0 КГц
    Частота кадров                           : 31,250 кадров/сек (1536 spf)
    Метод сжатия                             : С потерями
    Задержка видео                           : 1 мс.
    Размер потока                            : 230 Мбайт (17%)
    Выравнивание                             : Разделение по промежуткам
    Продолжительность промежутка             : 42  мс. (1,00 видеокадр)
    Время предзагрузки промежутка            : 500  мс.

    Неуловимые: Джекпот:

    Неуловимые: Джекпот
    Год выпуска: 2016
    Страна:
    Жанр: Комедия, Криминал, Приключения
    Продолжительность: 01:20:53
    Перевод: Оригинал Режиссеры: Артем Аксененко В ролях: Анвар Халилулаев, Александра Бортич, Иван Шахназаров, Илья Маланин, Илья Шидловский В основе сюжета фильма – новые головокружительные приключения четверки «Неуловимых». Кира, Федя, Артем и Женя продолжают борьбу с несправедливостью. Друзья полны сил и уверенности в себе, ведь им удалось наказать беспринципного олигарха Сергея Полянского и выбраться из опасной авантюры в Бангкоке. В Москве «Неуловимых» ожидает новое задание. К ним за помощью обращается девушка, брат которой пропал без вести. Друзья выясняют, что парень попал в плохую компанию и связан с подпольным казино, в котором «золотая молодежь» играет в карты на жизни простых ребят. Качество видео: WEB-DLRip
    Формат видео: AVI
    Видео: MPEG-4 Visual, 720x304, 25,0 fps, 2010 kbps
    Аудио: AC-3, 384 Kbps, 2 channels, 48.0 KHz

    MediaInfo:

    Общее
    Полное имя                               : Неуловимые\NeyloVymie.Djekpot.2O16.O.WEB-DLRip.14OOMB.avi
    Формат                                   : AVI
    Формат/Информация                        : Audio Video Interleave
    Размер файла                             : 1,36 Гбайт
    Продолжительность                        : 1 ч. 20 м.
    Общий поток                              : 2404 Кбит/сек
    Программа кодирования                    : VirtualDubMod 1.5.10.2 (build 2540/release)
    Библиотека кодирования                   : Boilsoft AVI tool build 30012/release
    Видео
    Идентификатор                            : 0
    Формат                                   : MPEG-4 Visual
    Профиль формата                          : Advanced Simple@L5
    Параметр BVOP формата                    : 2
    Параметр QPel формата                    : Нет
    Параметр GMC формата                     : Без точки перехода
    Параметр матрицы формата                 : Выборочная
    Идентификатор кодека                     : XVID
    Идентификатор кодека/Подсказка           : XviD
    Продолжительность                        : 1 ч. 20 м.
    Битрейт                                  : 2010 Кбит/сек
    Ширина                                   : 720 пикселей
    Высота                                   : 304 пикселя
    Соотношение сторон                       : 2,35:1
    Частота кадров                           : 25,000 кадров/сек
    Цветовое пространство                    : YUV
    Субдискретизация насыщенности            : 4:2:0
    Битовая глубина                          : 8 бит
    Тип развёртки                            : Прогрессивная
    Метод сжатия                             : С потерями
    Бит/(Пиксели*Кадры)                      : 0.367
    Размер потока                            : 1,14 Гбайт (84%)
    Библиотека кодирования                   : XviD 1.2.1 (UTC 2008-12-04)
    Аудио
    Идентификатор                            : 1
    Формат                                   : AC-3
    Формат/Информация                        : Audio Coding 3
    Расширение режима                        : CM (complete main)
    Параметр Endianness формата              : Big
    Идентификатор кодека                     : 2000
    Продолжительность                        : 1 ч. 20 м.
    Вид битрейта                             : Постоянный
    Битрейт                                  : 384 Кбит/сек
    Каналы                                   : 2 канала
    Расположение каналов                     : Front: L R
    Частота                                  : 48,0 КГц
    Частота кадров                           : 31,250 кадров/сек (1536 spf)
    Метод сжатия                             : С потерями
    Задержка видео                           : 16 мс.
    Размер потока                            : 222 Мбайт (16%)
    Выравнивание                             : Разделение по промежуткам
    Продолжительность промежутка             : 40  мс. (1,00 видеокадр)
    Время предзагрузки промежутка            : 500  мс.
    • Bot
    • -746

    • Сообщений: 1267

    • Откуда: Из Ботляндии

    Создавать темы 26-Авг-2016 23:30 (спустя 1 час 42 минуты)

    Топик был перенесен из форума Фильмы 2016 в форум Сборники
    LANIGIRO
    • Machine jr.
    • 47
    • Пол: Мужской

    • Стаж: 8 месяцев 15 дней

    • Сообщений: 272

    • Откуда: Central City

    • Репутация: 234


  • Создавать темы 27-Авг-2016 10:32 (спустя 12 часов)

    baddget, повесил на ленту и влепил золото, от меня спасибо!
    • DarkWell
    • 325
    • Пол: Мужской

    • Стаж: 8 месяцев 8 дней

    • Сообщений: 146

    • Репутация: 49


  • Создавать темы 27-Авг-2016 19:35 (спустя 9 часов)

    Где постер? (или она не открывается у меня?)
    Показать сообщения:    
    Главная » Фильмы » Фильмы России и стран СНГ » Сборники

    Текущее время: 19-Янв 07:16

    Часовой пояс: UTC + 5



    Вы не можете начинать темы
    Вы не можете отвечать на сообщения
    Вы не можете редактировать свои сообщения
    Вы не можете голосовать в опросах
    Вы не можете прикреплять файлы к сообщениям
    Вы не можете скачивать файлы
    Вы не можете удалять свои сообщения
    Firebit.red Torrent-Tracker :: 2016-2017 FBR Team Torrenpier pack by Baxrayder Supported by Media Portal Uztor.net