Отель Элеон / Сезон 1/ Серии: 1-21 из 21 (Антон Федотов, Антон Маслов, Екатерина Забулонская) [2016, комедия, WEB-DLRip] :: FireBit.Red
Регистрация ·
Имя: Пароль:  
· Забыли пароль?


 Отель Элеон / Сезон 1/ Серии: 1-21 из 21 (Антон Федотов, Антон Маслов, Екатерина Забулонская) [2016, комедия, WEB-DLRip]

Главная » Сериалы » Российские сериалы
 
Автор Сообщение
  • LovelyKiss... ®
  • 22
  • Пол: Женский

  • Стаж: 8 месяцев 15 дней

  • Сообщений: 265

  • Репутация: 405


  • Создавать темы 13-Дек-2016 14:09

    Год выпуска: 2016
    Страна: Россия, Украина
    Жанр: комедия
    Продолжительность: 00:25:00 ~ серия
    Перевод: Не требуется
    Cубтитры: нет
    Режиссер: Антон Федотов, Антон Маслов, Екатерина Забулонская
    В ролях: Милош Бикович, Диана Пожарская, Екатерина Вилкова, Елена Ксенофонтова, Григорий Сиятвинда, Сергей Лавыгин, Ольга Кузьмина, Виктор Хориняк, Сергей Ларин, Олег Гаас
    Описание: Элеонора Андреевна передаёт бутик-отель Eleon в руки своему племяннику — Павлу. Не желая собственноручно заниматься делами, он нанимает высококвалифицированного менеджера Софию Яновну Толстую. Она получает должность управляющей отелем, а Михаил Джекович становится её подчинённым. Новая управляющая вносит изменения в привычный уклад жизни Eleon’а. Настя становится арт-директором ресторана Victor, а Костя — всего лишь старшим барменом. Сеня становится шеф-поваром, но у него появляются проблемы в отношениях с женой Мариной, которая назначена главным бухгалтером бутик-отеля Eleon.
    В это же время в отеле появляется девушка по имени Даша. Оказавшись обманутой брачным аферистом, она устраивается на работу в отель в качестве горничной. Но судьба ей приготовила новый сюрприз: она случайно находит сумку с деньгами и решает хранить её втайне у себя. Она не подозревает, что за сумкой уже началась охота.

    Качество видео: WEB-DLRip
    Формат видео: AVI
    Видео: 720x400 (16:9), 25.000 fps, XviD, 1 513 Kbps
    Аудио: AC-3, 192 Kbps, 48.0 KHz, 2 ch

    MediaInfo

    General
    Complete name : E:\Для просмотра\Сериалы\Отель Элеон\Seriya 07.avi
    Format : AVI
    Format/Info : Audio Video Interleave
    File size : 300 MiB
    Duration : 24mn 29s
    Overall bit rate : 1 715 Kbps
    Writing application : VirtualDubMod 1.5.10.3 | www.virtualdub-fr.org || (build 2550/release)
    Writing library : VirtualDubMod build 2550/release
    Video
    ID : 0
    Format : MPEG-4 Visual
    Format profile : Advanced Simple@L5
    Format settings, BVOP : Yes
    Format settings, QPel : No
    Format settings, GMC : No warppoints
    Format settings, Matrix : Custom
    Codec ID : XVID
    Codec ID/Hint : XviD
    Duration : 24mn 29s
    Bit rate : 1 513 Kbps
    Width : 720 pixels
    Height : 400 pixels
    Display aspect ratio : 16:9
    Frame rate : 25.000 fps
    Color space : YUV
    Chroma subsampling : 4:2:0
    Bit depth : 8 bits
    Scan type : Progressive
    Compression mode : Lossy
    Bits/(Pixel*Frame) : 0.210
    Stream size : 265 MiB (88%)
    Writing library : XviD 73
    Audio
    ID : 1
    Format : AC-3
    Format/Info : Audio Coding 3
    Mode extension : CM (complete main)
    Format settings, Endianness : Big
    Codec ID : 2000
    Duration : 24mn 29s
    Bit rate mode : Constant
    Bit rate : 192 Kbps
    Channel(s) : 2 channels
    Channel positions : Front: L R
    Sampling rate : 48.0 KHz
    Bit depth : 16 bits
    Compression mode : Lossy
    Stream size : 33.6 MiB (11%)
    Alignment : Split accross interleaves
    Interleave, duration : 40 ms (1.00 video frame)
    Interleave, preload duration : 500 ms
    Скриншоты


    Последний раз редактировалось: LovelyKiss... (2016-12-30 08:58), всего редактировалось 6 раз(а)
    • .:Rtuty:.
    • 21
    • Пол: Мужской

    • Стаж: 8 месяцев 15 дней

    • Сообщений: 1486

    • Откуда: Из хим.завода

    • Репутация: 1165


  • Создавать темы 14-Дек-2016 13:20 (спустя 23 часа)

    Добавлена 11-я серия
    • drnemo
    • 811
    • Пол: Мужской

    • Стаж: 7 месяцев 10 дней

    • Сообщений: 187

    • Откуда: Ташкент

    • Репутация: 25


  • Создавать темы 14-Дек-2016 13:55 (спустя 34 минуты)

    те кто не смотрели посмотрите советую классный сериал это типа продолжение КУХНИ
    • LovelyKiss... ®
    • 22
    • Пол: Женский

    • Стаж: 8 месяцев 15 дней

    • Сообщений: 265

    • Репутация: 405


  • Создавать темы 15-Дек-2016 09:04 (спустя 19 часов)

    Добавлена 12 серия
    • LovelyKiss... ®
    • 22
    • Пол: Женский

    • Стаж: 8 месяцев 15 дней

    • Сообщений: 265

    • Репутация: 405


  • Создавать темы 16-Дек-2016 13:05 (спустя 1 день 4 часа)

    Добавлена 13 серия
    • drnemo
    • 811
    • Пол: Мужской

    • Стаж: 7 месяцев 10 дней

    • Сообщений: 187

    • Откуда: Ташкент

    • Репутация: 25


  • Создавать темы 16-Дек-2016 13:55 (спустя 49 минут)

    Настюш молодцом классно просто. Конечно я с онлайна смотрью но хорошо делаешь...
    • .:Rtuty:.
    • 21
    • Пол: Мужской

    • Стаж: 8 месяцев 15 дней

    • Сообщений: 1486

    • Откуда: Из хим.завода

    • Репутация: 1165


  • Создавать темы 20-Дек-2016 01:50 (спустя 3 дня)

    Добавлена 14-я серия
    • .:Rtuty:.
    • 21
    • Пол: Мужской

    • Стаж: 8 месяцев 15 дней

    • Сообщений: 1486

    • Откуда: Из хим.завода

    • Репутация: 1165


  • Создавать темы 21-Дек-2016 01:00 (спустя 23 часа)

    Добавлена 15-я серия
    • LovelyKiss... ®
    • 22
    • Пол: Женский

    • Стаж: 8 месяцев 15 дней

    • Сообщений: 265

    • Репутация: 405


  • Создавать темы 22-Дек-2016 03:21 (спустя 1 день 2 часа)

    Добавлена 16 серия
    • LovelyKiss... ®
    • 22
    • Пол: Женский

    • Стаж: 8 месяцев 15 дней

    • Сообщений: 265

    • Репутация: 405


  • Создавать темы 23-Дек-2016 09:22 (спустя 1 день 6 часов)

    Добавлена 17
    • .:Rtuty:.
    • 21
    • Пол: Мужской

    • Стаж: 8 месяцев 15 дней

    • Сообщений: 1486

    • Откуда: Из хим.завода

    • Репутация: 1165


  • Создавать темы 27-Дек-2016 05:23 (спустя 3 дня)

    Добавлена 18-я серия
    • LovelyKiss... ®
    • 22
    • Пол: Женский

    • Стаж: 8 месяцев 15 дней

    • Сообщений: 265

    • Репутация: 405


  • Создавать темы 28-Дек-2016 09:12 (спустя 1 день 3 часа)

    Добавлена 19 серия
    • .:Rtuty:.
    • 21
    • Пол: Мужской

    • Стаж: 8 месяцев 15 дней

    • Сообщений: 1486

    • Откуда: Из хим.завода

    • Репутация: 1165


  • Создавать темы 29-Дек-2016 01:54 (спустя 16 часов)

    Добавлена 20- я серия
    • LovelyKiss... ®
    • 22
    • Пол: Женский

    • Стаж: 8 месяцев 15 дней

    • Сообщений: 265

    • Репутация: 405


  • Создавать темы 30-Дек-2016 09:00 (спустя 1 день 7 часов)

    Добавлена 21 серия
    Показать сообщения:    
    Главная » Сериалы » Российские сериалы

    Текущее время: 19-Янв 07:15

    Часовой пояс: UTC + 5



    Вы не можете начинать темы
    Вы не можете отвечать на сообщения
    Вы не можете редактировать свои сообщения
    Вы не можете голосовать в опросах
    Вы не можете прикреплять файлы к сообщениям
    Вы не можете скачивать файлы
    Вы не можете удалять свои сообщения
    Firebit.red Torrent-Tracker :: 2016-2017 FBR Team Torrenpier pack by Baxrayder Supported by Media Portal Uztor.net