По ту сторону / Beyond / Сезон: 1 / Серии: 1-4 из 13 (Стив Эделсон, Ник Копус, Сэм Хилл) [2017 г., детектив, WEB-DLRip] (MVO) LostFilm :: FireBit.Red
Регистрация ·
Имя: Пароль:  
· Забыли пароль?


 По ту сторону / Beyond / Сезон: 1 / Серии: 1-4 из 13 (Стив Эделсон, Ник Копус, Сэм Хилл) [2017 г., детектив, WEB-DLRip] (MVO) LostFilm

Главная » Сериалы » Американские и Европейские сериалы
 
Автор Сообщение
  • .:Rtuty:. ®
  • 21
  • Пол: Мужской

  • Стаж: 8 месяцев 15 дней

  • Сообщений: 1486

  • Откуда: Из хим.завода

  • Репутация: 1165


  • Создавать темы 06-Янв-2017 11:14

    По ту сторону / Beyond-- -- -Год выпуска: 2017
    Страна: США
    Жанр: детектив
    Продолжительность: 00:43:00
    Перевод: Профессиональный многоголосый LostFilm-Режиссер: Стив Эделсон / Steven A. Adelson, Ник Копус / Nick Copus, Сэм Хилл / Sam Hill-В ролях: Джордан Кэллоуэй, Дилан Гвин, Роми Роузмонт, Джонатан Уайтселл, Баркели Даффилд, Майкл МакГрэйди, Джефф Пьер, Чад Виллетт, Эмилия Баранак, Джеки Лаи, Ава Грэйс Купер, Стивен Лобо-Описание: Детская авантюра заканчивается для маленького мальчика больничной койкой. Лишь спустя 12 лет Холден неожиданно выходит из комы, чтобы найти в себе способности, из-за которых он окажется в настоящей опасности.--Качество: WEB-DLRip
    Формат: AVI
    Видео: MPEG-4 Visual, 720x400, ~1264 kbps, 23,976 fps
    Аудио: MP3, 48 kHz, 192 kbps, 2 ch
    -

    MediaInfo

    General
    Complete name : F:\Сериалы\Beyond.S01E01.rus.LostFilm.TV.avi
    Format : AVI
    Format/Info : Audio Video Interleave
    File size : 473 MiB
    Duration : 43 min 18 s
    Overall bit rate mode : Variable
    Overall bit rate : 1 526 kb/s
    Writing application : Nandub v1.0rc2
    Writing library : Nandub build 1853/release
    Video
    ID : 0
    Format : MPEG-4 Visual
    Format profile : Advanced Simple@L5
    Format settings, BVOP : No
    Format settings, QPel : No
    Format settings, GMC : No warppoints
    Format settings, Matrix : Default (MPEG)
    Codec ID : XVID
    Codec ID/Hint : XviD
    Duration : 43 min 18 s
    Bit rate : 1 265 kb/s
    Width : 720 pixels
    Height : 400 pixels
    Display aspect ratio : 16:9
    Frame rate : 23.976 (24000/1001) FPS
    Original frame rate : 23.976 (23976/1000) FPS
    Color space : YUV
    Chroma subsampling : 4:2:0
    Bit depth : 8 bits
    Scan type : Progressive
    Compression mode : Lossy
    Bits/(Pixel*Frame) : 0.183
    Stream size : 392 MiB (83%)
    Writing library : XviD 1.2.1 (UTC 2008-12-04)
    Audio
    ID : 1
    Format : MPEG Audio
    Format version : Version 1
    Format profile : Layer 3
    Mode : Joint stereo
    Mode extension : MS Stereo
    Codec ID : 55
    Codec ID/Hint : MP3
    Duration : 43 min 18 s
    Bit rate mode : Variable
    Bit rate : 192 kb/s
    Channel(s) : 2 channels
    Sampling rate : 48.0 kHz
    Compression mode : Lossy
    Stream size : 59.5 MiB (13%)
    Alignment : Aligned on interleaves
    Writing library : LAME3.97b
    Encoding settings : -m j -V 4 -q 3 -lowpass 18.6 --abr 192
    -


    Последний раз редактировалось: .:Rtuty:. (Вчера, в 02:08), всего редактировалось 2 раз(а)
    • .:Rtuty:. ®
    • 21
    • Пол: Мужской

    • Стаж: 8 месяцев 15 дней

    • Сообщений: 1486

    • Откуда: Из хим.завода

    • Репутация: 1165


  • Создавать темы 07-Янв-2017 16:54 (спустя 1 день 5 часов)

    Добавлена 2-я серия
    • .:Rtuty:. ®
    • 21
    • Пол: Мужской

    • Стаж: 8 месяцев 15 дней

    • Сообщений: 1486

    • Откуда: Из хим.завода

    • Репутация: 1165


  • Создавать темы 12-Янв-2017 20:08 (спустя 5 дней)

    Добавлена 3-я серия
    • .:Rtuty:. ®
    • 21
    • Пол: Мужской

    • Стаж: 8 месяцев 15 дней

    • Сообщений: 1486

    • Откуда: Из хим.завода

    • Репутация: 1165


  • Создавать темы Вчера, в 02:09 (спустя 5 дней)

    Добавлена 4-я серия
    Показать сообщения:    
    Главная » Сериалы » Американские и Европейские сериалы

    Текущее время: 19-Янв 07:13

    Часовой пояс: UTC + 5



    Вы не можете начинать темы
    Вы не можете отвечать на сообщения
    Вы не можете редактировать свои сообщения
    Вы не можете голосовать в опросах
    Вы не можете прикреплять файлы к сообщениям
    Вы не можете скачивать файлы
    Вы не можете удалять свои сообщения
    Firebit.red Torrent-Tracker :: 2016-2017 FBR Team Torrenpier pack by Baxrayder Supported by Media Portal Uztor.net