Убийство / Murder / Сезон: 1 / Серии: 1-3 из 3 (Биргер Ларсен, Ян Форсис, Джейн Поллард) [ 2016 , Великобритания , криминал , WEB-DLRip ] (MVO) BaibaKoTV :: FireBit.Red
Регистрация ·
Имя: Пароль:  
· Забыли пароль?


 Убийство / Murder / Сезон: 1 / Серии: 1-3 из 3 (Биргер Ларсен, Ян Форсис, Джейн Поллард) [ 2016 , Великобритания , криминал , WEB-DLRip ] (MVO) BaibaKoTV

Главная » Сериалы » Американские и Европейские сериалы
 
Автор Сообщение
  • .:Rtuty:. ®
  • 21
  • Пол: Мужской

  • Стаж: 8 месяцев 15 дней

  • Сообщений: 1486

  • Откуда: Из хим.завода

  • Репутация: 1165


  • Создавать темы 07-Янв-2017 14:51

    УбийствоMurder-- -Год выпуска: 2016
    Страна: Великобритания
    Жанр: криминал
    Продолжительность: 1x 00:58:00
    Перевод: Профессиональный многоголосый BaibaKoTV
    Субтитры: Отсутствуют--Режиссер: Биргер Ларсен / Birger Larsen, Ян Форсис / Iain Forsyth, Джейн Поллард / Jane Pollard--В ролях:
    Карла Кроум (Coleen), Себастьян Арместо (Dominic Cotterall), Питер МакДональд (Leo Durridge), Майкл Смайли (Whitmore), Джозеф Демпси (Stefan), Джессика Барден (Jess), Морвен Кристи (DS Corinne Evans), Энн-Мэри Дафф (DCI Goss), Стивен Диллэйн (Arlo Raglin), Коннор МакКэррон (Frankie Alder), Хейли Сквайрс (Bryony Phelps), Дэвид Уилмот (Clyde Harris)--Описание: Сериал о работе детективов, которые расследуют преступления, совершенные в Великобритании. В центре внимания простые люди, которые отдают все свое время работе, принося в жертву личную жизнь, личное время и интересы.-- --Качество: WEB-DLRip
    Формат: AVI-Видео: MPEG-4 Visual, 720x304 (2.35:1), 1497 kbps, 25 fps, 0,274 bpp
    Аудио #1: MP3 / 2.0 / 48 kHz / 192 kbps /
    Аудио #2: MP3 / 2.0 / 48 kHz / 192 kbps / Eng
    -

    Media Info

    General
    Complete name : F:\Сериалы\Murder.s01.WEB-DLRip.XviD.Rus.Eng.BaibaKo.tv\Murder.s01e01.WEB-DLRip.XviD.Rus.Eng.BaibaKo.tv.avi
    Format : AVI
    Format/Info : Audio Video Interleave
    File size : 795 MiB
    Duration : 58 min 51 s
    Overall bit rate : 1 889 kb/s
    Video
    ID : 0
    Format : MPEG-4 Visual
    Format profile : Advanced Simple@L5
    Format settings, BVOP : 2
    Format settings, QPel : No
    Format settings, GMC : No warppoints
    Format settings, Matrix : Default (H.263)
    Codec ID : XVID
    Codec ID/Hint : XviD
    Duration : 58 min 51 s
    Bit rate : 1 497 kb/s
    Width : 720 pixels
    Height : 304 pixels
    Display aspect ratio : 2.35:1
    Frame rate : 25.000 FPS
    Color space : YUV
    Chroma subsampling : 4:2:0
    Bit depth : 8 bits
    Scan type : Progressive
    Compression mode : Lossy
    Bits/(Pixel*Frame) : 0.274
    Stream size : 630 MiB (79%)
    Writing library : XviD 67
    Audio #1
    ID : 1
    Format : MPEG Audio
    Format version : Version 1
    Format profile : Layer 3
    Mode : Joint stereo
    Mode extension : MS Stereo
    Codec ID : 55
    Codec ID/Hint : MP3
    Duration : 58 min 51 s
    Bit rate mode : Constant
    Bit rate : 192 kb/s
    Channel(s) : 2 channels
    Sampling rate : 48.0 kHz
    Compression mode : Lossy
    Stream size : 80.8 MiB (10%)
    Alignment : Aligned on interleaves
    Interleave, duration : 160 ms (4.00 video frames)
    Interleave, preload duration : 216 ms
    Title : Murder.s01e01.HD1080p.WEB-DL.Rus.Eng.BaibaKo.tv - [0] Russian_audio
    Writing library : LAME3.99r
    Encoding settings : -m j -V 4 -q 2 -lowpass 18.6 -b 192
    Audio #2
    ID : 2
    Format : MPEG Audio
    Format version : Version 1
    Format profile : Layer 3
    Mode : Joint stereo
    Mode extension : MS Stereo
    Codec ID : 55
    Codec ID/Hint : MP3
    Duration : 58 min 51 s
    Bit rate mode : Constant
    Bit rate : 192 kb/s
    Channel(s) : 2 channels
    Sampling rate : 48.0 kHz
    Compression mode : Lossy
    Stream size : 80.8 MiB (10%)
    Alignment : Aligned on interleaves
    Interleave, duration : 160 ms (4.00 video frames)
    Interleave, preload duration : 216 ms
    Title : Murder.s01e01.HD1080p.WEB-DL.Rus.Eng.BaibaKo.tv - [1] English_audio
    Writing library : LAME3.99r
    Encoding settings : -m j -V 4 -q 2 -lowpass 18.6 -b 192
    -
    Показать сообщения:    
    Главная » Сериалы » Американские и Европейские сериалы

    Текущее время: 19-Янв 07:12

    Часовой пояс: UTC + 5



    Вы не можете начинать темы
    Вы не можете отвечать на сообщения
    Вы не можете редактировать свои сообщения
    Вы не можете голосовать в опросах
    Вы не можете прикреплять файлы к сообщениям
    Вы не можете скачивать файлы
    Вы не можете удалять свои сообщения
    Firebit.red Torrent-Tracker :: 2016-2017 FBR Team Torrenpier pack by Baxrayder Supported by Media Portal Uztor.net