Табу / Taboo Сезон: 1 / Серии: 1-1 из ? (Андерс Энгстрем / Anders Engström, Кристоффер Нюхольм / Kristoffer Nyholm) [2017 г., драма, HDTV] (ColdFilm) :: FireBit.Red
Регистрация ·
Имя: Пароль:  
· Забыли пароль?


 Табу / Taboo Сезон: 1 / Серии: 1-1 из ? (Андерс Энгстрем / Anders Engström, Кристоффер Нюхольм / Kristoffer Nyholm) [2017 г., драма, HDTV] (ColdFilm)

Главная » Сериалы » Американские и Европейские сериалы
 
Автор Сообщение
  • СССР ®
  • 4450
  • Пол: Мужской

  • Стаж: 1 месяц 2 дня

  • Сообщений: 175

  • Откуда: Ташкент Сергели р-он

  • Репутация: 50


  • Создавать темы 09-Янв-2017 22:54

    Табу / Taboo- Год выпуска: 2017
    Страна: Великобритания, США
    Жанр: драма
    Продолжительность: Продолжительность: 1 х ~ 00:55:32
    Перевод: Любительский двухголосый ColdFilm-Режиссер: Андерс Энгстрем / Anders Engström, Кристоффер Нюхольм / Kristoffer Nyholm
    В ролях: Том Харди, Лео Билл, Уна Чаплин, Ричард Диксон, Дэвид Хейман, Майкл Келли, Дэнни Лигаири, Джонатан Прайс, Рой Торн, Скрубиус Пип, Джейсон Уоткинс, Джефферсон Холл-Описание: Искатель приключений Джеймс Кезиах Делейни строит свою собственную корабельную империю в начале 1800-х годов.-КиноПоиск: 8.458 (112)
    Дата выхода: 07.01.2017
    -Качество: HDTV
    Формат: AVI
    Видео: xvid, 720x400, ~1109 kbps, 25 fps
    Аудио: MP3, 48 kHz, 128 kbps, 2 ch-

    MediaInfo

    General
    Complete name : E:\загрузки\Taboo.UK.S01E01.400p.HDTV.ColdFilm.Ru.avi
    Format : AVI
    Format/Info : Audio Video Interleave
    File size : 497 MiB
    Duration : 55 min 32 s
    Overall bit rate : 1 251 kb/s
    Writing application : Lavf54.63.104
    Video
    ID : 0
    Format : xvid
    Codec ID : xvid
    Duration : 55 min 32 s
    Bit rate : 1 110 kb/s
    Width : 720 pixels
    Height : 400 pixels
    Display aspect ratio : 16:9
    Frame rate : 25.000 FPS
    Scan type : Progressive
    Bits/(Pixel*Frame) : 0.154
    Stream size : 441 MiB (89%)
    Audio
    ID : 1
    Format : MPEG Audio
    Format version : Version 1
    Format profile : Layer 3
    Mode : Joint stereo
    Mode extension : MS Stereo
    Codec ID : 55
    Codec ID/Hint : MP3
    Duration : 55 min 32 s
    Bit rate mode : Constant
    Bit rate : 128 kb/s
    Channel(s) : 2 channels
    Sampling rate : 48.0 kHz
    Compression mode : Lossy
    Stream size : 50.8 MiB (10%)
    Alignment : Aligned on interleaves
    Interleave, duration : 24 ms (0.60 video frame)
    Writing library : LAME3.99.5

    • doni-1979
    • 1211
    • Пол: Мужской

    • Стаж: 7 месяцев

    • Сообщений: 13

    • Репутация: 30


  • Создавать темы 09-Янв-2017 23:42 (спустя 47 минут)

    И что это за релиз?
    Размер: 497 MB | Зарегистрирован: 45 минут | Скачан: 0 раз
    Полного источника не было: Никогда
    Как тогда качать и у кого???
    • СССР ®
    • 4450
    • Пол: Мужской

    • Стаж: 1 месяц 2 дня

    • Сообщений: 175

    • Откуда: Ташкент Сергели р-он

    • Репутация: 50


  • Создавать темы 09-Янв-2017 23:43 (спустя 1 минута)

    это проблема у трекера они все делаю что бы вы качали
    • doni-1979
    • 1211
    • Пол: Мужской

    • Стаж: 7 месяцев

    • Сообщений: 13

    • Репутация: 30


  • Создавать темы 09-Янв-2017 23:44 (спустя 1 минута)

    СССР, Спасибо большое!!!
    Показать сообщения:    
    Главная » Сериалы » Американские и Европейские сериалы

    Текущее время: 19-Янв 07:11

    Часовой пояс: UTC + 5



    Вы не можете начинать темы
    Вы не можете отвечать на сообщения
    Вы не можете редактировать свои сообщения
    Вы не можете голосовать в опросах
    Вы не можете прикреплять файлы к сообщениям
    Вы не можете скачивать файлы
    Вы не можете удалять свои сообщения
    Firebit.red Torrent-Tracker :: 2016-2017 FBR Team Torrenpier pack by Baxrayder Supported by Media Portal Uztor.net