Изумрудный город / Emerald City / Сезон: 1 / Серии: 1-3 из 10 (Тарсем Сингх) [ 2016 , США , фэнтези , WEB-DLRip ] (MVO) LostFilm :: FireBit.Red
Регистрация ·
Имя: Пароль:  
· Забыли пароль?


 Изумрудный город / Emerald City / Сезон: 1 / Серии: 1-3 из 10 (Тарсем Сингх) [ 2016 , США , фэнтези , WEB-DLRip ] (MVO) LostFilm

Главная » Сериалы » Американские и Европейские сериалы
 
Автор Сообщение
  • .:Rtuty:. ®
  • 21
  • Пол: Мужской

  • Стаж: 8 месяцев 15 дней

  • Сообщений: 1486

  • Откуда: Из хим.завода

  • Репутация: 1165


  • Создавать темы 10-Янв-2017 00:49

    Изумрудный город -Emerald City -«Say goodbye to Kansas»- -Год выпуска: 2016
    Страна: США
    Жанр: фэнтези
    Продолжительность: 00:40:30
    Перевод: Профессиональный многоголосый | LostFilm
    Субтитры : Отсутствуют--Режиссер: Тарсем Сингх / Tarsem Singh--В ролях: Герран Хауэлл (Jack), Адриа Архона (Dorothy Gale), Винсент Д’Онофрио (The Wizard), Оливер Джексон-Коэн (Lucas), Изабель Лукас (Anna), Стефани Мартини (Lady Ev), Ана Улару (West), Рокси Штернберг (Elizabeth), Ребека Ри (Sylvie), Оулавюр Дарри Оулафссон (Ojo), Вахид Голд (Toby), Миа Маунтин (Nahara)--Описание: В мгновение ока, торнадо уносит 20-летнюю Дороти Гейл и её полицейскую собаку в мир, далекий от нашего - мистическую землю, охваченную кровавой войной между конкурирующими королевствами, в страну Оз. Дороти попадает в этот опасный мир и раскрывает свою истинную судьбу.-- --Качество: WEB-DLRip
    Формат: AVI-Видео: MPEG-4 Visual, 720x400 (16:9), 1790 kbps, 23,976 fps, 0,259 bpp
    Аудио: MP3 / 2.0 / 48 kHz / 192 kbps /
    -

    Media Info

    General
    Complete name : F:\Сериалы\Emerald.City.S01E01.rus.LostFilm.TV.avi
    Format : AVI
    Format/Info : Audio Video Interleave
    File size : 577 MiB
    Duration : 40 min 30 s
    Overall bit rate mode : Variable
    Overall bit rate : 1 990 kb/s
    Writing application : Nandub v1.0rc2
    Writing library : Nandub build 1853/release
    Video
    ID : 0
    Format : MPEG-4 Visual
    Format profile : Advanced Simple@L5
    Format settings, BVOP : No
    Format settings, QPel : No
    Format settings, GMC : No warppoints
    Format settings, Matrix : Default (MPEG)
    Codec ID : XVID
    Codec ID/Hint : XviD
    Duration : 40 min 30 s
    Bit rate : 1 790 kb/s
    Width : 720 pixels
    Height : 400 pixels
    Display aspect ratio : 16:9
    Frame rate : 23.976 (24000/1001) FPS
    Original frame rate : 23.976 (23976/1000) FPS
    Color space : YUV
    Chroma subsampling : 4:2:0
    Bit depth : 8 bits
    Scan type : Progressive
    Compression mode : Lossy
    Bits/(Pixel*Frame) : 0.259
    Stream size : 519 MiB (90%)
    Writing library : XviD 1.2.1 (UTC 2008-12-04)
    Audio
    ID : 1
    Format : MPEG Audio
    Format version : Version 1
    Format profile : Layer 3
    Mode : Joint stereo
    Mode extension : MS Stereo
    Codec ID : 55
    Codec ID/Hint : MP3
    Duration : 40 min 30 s
    Bit rate mode : Variable
    Bit rate : 192 kb/s
    Channel(s) : 2 channels
    Sampling rate : 48.0 kHz
    Compression mode : Lossy
    Stream size : 54.2 MiB (9%)
    Alignment : Aligned on interleaves
    Interleave, duration : 24 ms (0.58 video frame)
    Interleave, preload duration : 496 ms
    Writing library : LAME3.97b
    Encoding settings : -m j -V 4 -q 3 -lowpass 18.6 --abr 192
    -


    Последний раз редактировалось: .:Rtuty:. (2017-01-16 06:55), всего редактировалось 3 раз(а)
    • СССР
    • 4450
    • Пол: Мужской

    • Стаж: 1 месяц 2 дня

    • Сообщений: 175

    • Откуда: Ташкент Сергели р-он

    • Репутация: 50


  • Создавать темы 10-Янв-2017 00:52 (спустя 2 минуты)

    Изумрудный город / Emerald City / Сезон: 1 / Серии: 1-1 из 2 (Тарсем Сингх) [ 2016 , США , фэнтези , WEB-DLRip ] (MVO) LostFilm
    а скриншоты есть?

    Информация от .:Rtuty:.


    Конечно есть
    • .:Rtuty:. ®
    • 21
    • Пол: Мужской

    • Стаж: 8 месяцев 15 дней

    • Сообщений: 1486

    • Откуда: Из хим.завода

    • Репутация: 1165


  • Создавать темы 11-Янв-2017 08:45 (спустя 1 день 7 часов)

    Добавлена 2 серия
    • .:Rtuty:. ®
    • 21
    • Пол: Мужской

    • Стаж: 8 месяцев 15 дней

    • Сообщений: 1486

    • Откуда: Из хим.завода

    • Репутация: 1165


  • Создавать темы 16-Янв-2017 06:56 (спустя 4 дня)

    Добавлена 3-я серия
    Показать сообщения:    
    Главная » Сериалы » Американские и Европейские сериалы

    Текущее время: 19-Янв 07:14

    Часовой пояс: UTC + 5



    Вы не можете начинать темы
    Вы не можете отвечать на сообщения
    Вы не можете редактировать свои сообщения
    Вы не можете голосовать в опросах
    Вы не можете прикреплять файлы к сообщениям
    Вы не можете скачивать файлы
    Вы не можете удалять свои сообщения
    Firebit.red Torrent-Tracker :: 2016-2017 FBR Team Torrenpier pack by Baxrayder Supported by Media Portal Uztor.net