Гражданский брак / Сезон: 1 / Серия 1-5 из 16 (Дина Штурманова) [2017 г., комедия, SATRip] :: FireBit.Red
Регистрация ·
Имя: Пароль:  
· Забыли пароль?


 Гражданский брак / Сезон: 1 / Серия 1-5 из 16 (Дина Штурманова) [2017 г., комедия, SATRip]

Главная » Сериалы » Российские сериалы
 
Автор Сообщение
  • СССР ®
  • 4450
  • Пол: Мужской

  • Стаж: 1 месяц 2 дня

  • Сообщений: 175

  • Откуда: Ташкент Сергели р-он

  • Репутация: 50


  • Создавать темы 10-Янв-2017 03:51

    -
    Год выпуска: 2017
    Страна: Россия
    Жанр: комедия
    Продолжительность: 1x ~ 00:20:51
    Перевод: Не требуется-Режиссер: Дина Штурманова-В ролях: Агата Муцениеце, Денис Кукояка, Дмитрий Астрахан, Анна Легчилова, Ирина Чеснокова, Дмитрий Аверин, Михаил Грушевский, Стефания-Марьяна Гурская, Александр Шулико, Степан Девонин, Наталья Индейкина, Максим Литовченко-Описание: История о паре, которой уже поздно встречаться, но рано жениться. Тёма и Ника вместе уже больше года и, им хорошо и весело вместе. Но они легкомысленные и не слишком серьезно ко всему относятся. Они не хотят повторять жизнь своих родителей: 18 - первая работа, в 20 - свадьба, в 25 - семья и трое детей.--Качество: SATRip
    Формат: AVI
    Видео: MPEG-4 Visual, 720x400, ~1649 kbps, 25 fps
    Аудио: MP3, 48 kHz, 192 kbps, 2 ch-

    MediaInfo

    General
    Complete name : E:\загрузки\Grajdanskiy.brak.(01.seriya.iz.16).2016.SATRip.BigFANgroup.avi
    Format : AVI
    Format/Info : Audio Video Interleave
    File size : 276 MiB
    Duration : 20 min 51 s
    Overall bit rate : 1 852 kb/s
    Writing application : VirtualDubMod 1.5.10.3 | www.virtualdub-fr.org || (build 2550/release)
    Writing library : VirtualDubMod build 2550/release
    Video
    ID : 0
    Format : MPEG-4 Visual
    Format profile : Advanced Simple@L5
    Format settings, BVOP : 1
    Format settings, QPel : No
    Format settings, GMC : No warppoints
    Format settings, Matrix : Default (MPEG)
    Codec ID : XVID
    Codec ID/Hint : XviD
    Duration : 20 min 51 s
    Bit rate : 1 650 kb/s
    Width : 720 pixels
    Height : 400 pixels
    Display aspect ratio : 16:9
    Frame rate : 25.000 FPS
    Color space : YUV
    Chroma subsampling : 4:2:0
    Bit depth : 8 bits
    Scan type : Progressive
    Compression mode : Lossy
    Bits/(Pixel*Frame) : 0.229
    Stream size : 246 MiB (89%)
    Writing library : XviD 1.2.1 (UTC 2008-12-04)
    Audio
    ID : 1
    Format : MPEG Audio
    Format version : Version 1
    Format profile : Layer 3
    Codec ID : 55
    Codec ID/Hint : MP3
    Duration : 20 min 51 s
    Bit rate mode : Constant
    Bit rate : 192 kb/s
    Channel(s) : 2 channels
    Sampling rate : 48.0 kHz
    Compression mode : Lossy
    Stream size : 28.6 MiB (10%)
    Alignment : Aligned on interleaves
    Interleave, duration : 40 ms (1.00 video frame)
    Interleave, preload duration : 504 ms
    Writing library : LAME3.99r
    Encoding settings : -m s -V 4 -q 2 -lowpass 18.6 -b 192



    Последний раз редактировалось: СССР (2017-01-10 23:32), всего редактировалось 1 раз
    • СССР ®
    • 4450
    • Пол: Мужской

    • Стаж: 1 месяц 2 дня

    • Сообщений: 175

    • Откуда: Ташкент Сергели р-он

    • Репутация: 50


  • Создавать темы 10-Янв-2017 20:28 (спустя 16 часов)


    Добавлено 4 серия
    • СССР ®
    • 4450
    • Пол: Мужской

    • Стаж: 1 месяц 2 дня

    • Сообщений: 175

    • Откуда: Ташкент Сергели р-он

    • Репутация: 50


  • Создавать темы 10-Янв-2017 23:32 (спустя 3 часа)


    Добавлено 5 серия
    Показать сообщения:    
    Главная » Сериалы » Российские сериалы

    Текущее время: 19-Янв 07:16

    Часовой пояс: UTC + 5



    Вы не можете начинать темы
    Вы не можете отвечать на сообщения
    Вы не можете редактировать свои сообщения
    Вы не можете голосовать в опросах
    Вы не можете прикреплять файлы к сообщениям
    Вы не можете скачивать файлы
    Вы не можете удалять свои сообщения
    Firebit.red Torrent-Tracker :: 2016-2017 FBR Team Torrenpier pack by Baxrayder Supported by Media Portal Uztor.net