Сонная Лощина / Sleepy Hollow / Сезон: 4 / Серия: 1-2 из 13 (Кен Олин, Эрнест Р. Дикерсон, Пол А. Эдвардс) [ 2017 , США , фэнтези, триллер, драма , WEB-DLRip ] (MVO) LostFilm :: FireBit.Red
Регистрация ·
Имя: Пароль:  
· Забыли пароль?


 Сонная Лощина / Sleepy Hollow / Сезон: 4 / Серия: 1-2 из 13 (Кен Олин, Эрнест Р. Дикерсон, Пол А. Эдвардс) [ 2017 , США , фэнтези, триллер, драма , WEB-DLRip ] (MVO) LostFilm

Главная » Сериалы » Американские и Европейские сериалы
 
Автор Сообщение
  • .:Rtuty:. ®
  • 21
  • Пол: Мужской

  • Стаж: 8 месяцев 15 дней

  • Сообщений: 1486

  • Откуда: Из хим.завода

  • Репутация: 1165


  • Создавать темы 10-Янв-2017 09:12

    Сонная Лощина -Sleepy Hollow- -«Evil takes hold»- -Год выпуска: 2017
    Страна: США
    Жанр: фэнтези, триллер, драма, детектив, приключения
    Продолжительность: 1x 00:44:00
    Перевод: Профессиональный многоголосый | LostFilm
    Субтитры: Отсутствуют--Режиссеры: Кен Олин, Эрнест Р. Дикерсон, Пол А. Эдвардс--В ролях: Том Мисон (Ichabod Crane), Николь Бахари (Abbie Mills), Орландо Джонс (Frank Irving), Катя Винтер (Katrina Crane), Линди Гринвуд (Jenny Mills), Джон Ноубл (Henry Parrish), Никки Рид (Betsy Ross), Зэк Аппельман (Joe Corbin), Шаннин Соссамон (Pandora), Лэнс Гросс (Daniel Reynolds), Джессика Камачо (Sophie Foster), Джереми Оуэнс (Headless Horseman)--Описание: После смерти Икабода Крейна в одной из битв в войне за независимость на стороне сил генерала Джорджа Вашингтона, Икабод восстаёт из небытия в местечке Сонная лощина штата Нью-Йорк. Одновременно с ним восстаёт из мёртвых всадник без головы, голову которому Икабод Крейн отрубил перед собственной гибелью. Всадник без головы начинает убивать людей и главный герой должен остановить его, действуя совместно с лейтенантом полиции Эбби Миллс.-- --Качество: WEB-DLRip
    Формат: AVI-Видео: MPEG-4 Visual, 720x400 (16:9), 1139 kbps, 23,976 fps, 0,165 bpp
    Аудио: MP3 / 2.0 / 48 kHz / 192 kbps /
    -

    Media Info

    General
    Complete name : F:\Сериалы\Sleepy.Hollow.S04E01.rus.LostFilm.TV.avi
    Format : AVI
    Format/Info : Audio Video Interleave
    File size : 424 MiB
    Duration : 44 min 11 s
    Overall bit rate mode : Variable
    Overall bit rate : 1 340 kb/s
    Writing application : Nandub v1.0rc2
    Writing library : Nandub build 1853/release
    Video
    ID : 0
    Format : MPEG-4 Visual
    Format profile : Advanced Simple@L5
    Format settings, BVOP : No
    Format settings, QPel : No
    Format settings, GMC : No warppoints
    Format settings, Matrix : Default (MPEG)
    Codec ID : XVID
    Codec ID/Hint : XviD
    Duration : 44 min 11 s
    Bit rate : 1 139 kb/s
    Width : 720 pixels
    Height : 400 pixels
    Display aspect ratio : 16:9
    Frame rate : 23.976 (24000/1001) FPS
    Original frame rate : 23.976 (23976/1000) FPS
    Color space : YUV
    Chroma subsampling : 4:2:0
    Bit depth : 8 bits
    Scan type : Progressive
    Compression mode : Lossy
    Bits/(Pixel*Frame) : 0.165
    Stream size : 360 MiB (85%)
    Writing library : XviD 1.2.1 (UTC 2008-12-04)
    Audio
    ID : 1
    Format : MPEG Audio
    Format version : Version 1
    Format profile : Layer 3
    Mode : Joint stereo
    Mode extension : MS Stereo
    Codec ID : 55
    Codec ID/Hint : MP3
    Duration : 44 min 11 s
    Bit rate mode : Variable
    Bit rate : 192 kb/s
    Channel(s) : 2 channels
    Sampling rate : 48.0 kHz
    Compression mode : Lossy
    Stream size : 59.6 MiB (14%)
    Alignment : Aligned on interleaves
    Interleave, duration : 24 ms (0.58 video frame)
    Interleave, preload duration : 463 ms
    Writing library : LAME3.97b
    Encoding settings : -m j -V 4 -q 3 -lowpass 18.6 --abr 192
    -
    • .:Rtuty:. ®
    • 21
    • Пол: Мужской

    • Стаж: 8 месяцев 15 дней

    • Сообщений: 1486

    • Откуда: Из хим.завода

    • Репутация: 1165


  • Создавать темы 17-Янв-2017 05:19 (спустя 6 дней)

    Добавлена 2-я серия
    Показать сообщения:    
    Главная » Сериалы » Американские и Европейские сериалы

    Текущее время: 19-Янв 07:14

    Часовой пояс: UTC + 5



    Вы не можете начинать темы
    Вы не можете отвечать на сообщения
    Вы не можете редактировать свои сообщения
    Вы не можете голосовать в опросах
    Вы не можете прикреплять файлы к сообщениям
    Вы не можете скачивать файлы
    Вы не можете удалять свои сообщения
    Firebit.red Torrent-Tracker :: 2016-2017 FBR Team Torrenpier pack by Baxrayder Supported by Media Portal Uztor.net