Гримм / Grimm / Сезон: 6 / Серии: 1-2 из 13 (Норберто Барба, Дарнелл Мартин, Дэвид Соломон) [ 2017 , США , ужасы, фэнтези, драма , WEB-DLRip ] (MVO) LostFilm :: FireBit.Red
Регистрация ·
Имя: Пароль:  
· Забыли пароль?


 Гримм / Grimm / Сезон: 6 / Серии: 1-2 из 13 (Норберто Барба, Дарнелл Мартин, Дэвид Соломон) [ 2017 , США , ужасы, фэнтези, драма , WEB-DLRip ] (MVO) LostFilm

Главная » Сериалы » Американские и Европейские сериалы
 
Автор Сообщение
  • .:Rtuty:. ®
  • 21
  • Пол: Мужской

  • Стаж: 8 месяцев 15 дней

  • Сообщений: 1486

  • Откуда: Из хим.завода

  • Репутация: 1165


  • Создавать темы 10-Янв-2017 09:44

    Гримм -Grimm- -«Not your usual suspects»- -Год выпуска: 2017
    Страна: США
    Жанр: ужасы, фэнтези, драма, детектив
    Продолжительность: 1x 00:43:00
    Перевод: Профессиональный многоголосый | LostFilm
    Субтитры: Отсутствуют--Режиссеры: Норберто Барба, Дарнелл Мартин, Дэвид Соломон--В ролях: Дэвид Джинтоли (Nick Burkhardt), Битси Таллок (Juliette Silverton), Сайлас Уэйр Митчелл (Monroe), Расселл Хорнсби (Hank Griffin), Саша Ройз (Captain Sean Renard), Регги Ли (Sgt. Wu), Клэр Коффи (Adalind Schade), Бри Тёрнер (Rosalee Calvert), Роберт Бланш (Sgt. Franco), Жаклин Тобони (Trubel), Дэмиен Пакер (Meisner), Дэнни Бруно (Bud)--Описание: Действие происходит в современном Портленде, где детектив из отдела убийств узнаёт, что он является потомком группы охотников, известных как «Гриммы», которые сражаются, чтобы сохранить человечество в безопасности от сверхъестественных существ. Узнав о своей судьбе, и том, что он является последним из своего рода, он должен защитить каждую живую душу от зловещих персонажей сборника сказок, которые проникли в реальный мир.-- --Качество: WEB-DLRip
    Формат: AVI-Видео: MPEG-4 Visual, 720x400 (16:9), 1336 kbps, 23,976 fps, 0,194 bpp
    Аудио: MP3 / 2.0 / 48 kHz / 192 kbps /
    -

    Media Info

    General
    Complete name : F:\Сериалы\Grimm.S06E01.rus.LostFilm.TV.avi
    Format : AVI
    Format/Info : Audio Video Interleave
    File size : 474 MiB
    Duration : 43 min 8 s
    Overall bit rate mode : Variable
    Overall bit rate : 1 537 kb/s
    Writing application : Nandub v1.0rc2
    Writing library : Nandub build 1853/release
    Video
    ID : 0
    Format : MPEG-4 Visual
    Format profile : Advanced Simple@L5
    Format settings, BVOP : No
    Format settings, QPel : No
    Format settings, GMC : No warppoints
    Format settings, Matrix : Default (MPEG)
    Codec ID : XVID
    Codec ID/Hint : XviD
    Duration : 43 min 8 s
    Bit rate : 1 336 kb/s
    Width : 720 pixels
    Height : 400 pixels
    Display aspect ratio : 16:9
    Frame rate : 23.976 (24000/1001) FPS
    Original frame rate : 23.976 (23976/1000) FPS
    Color space : YUV
    Chroma subsampling : 4:2:0
    Bit depth : 8 bits
    Scan type : Progressive
    Compression mode : Lossy
    Bits/(Pixel*Frame) : 0.194
    Stream size : 412 MiB (87%)
    Writing library : XviD 1.2.1 (UTC 2008-12-04)
    Audio
    ID : 1
    Format : MPEG Audio
    Format version : Version 1
    Format profile : Layer 3
    Mode : Joint stereo
    Mode extension : MS Stereo
    Codec ID : 55
    Codec ID/Hint : MP3
    Duration : 43 min 8 s
    Bit rate mode : Variable
    Bit rate : 192 kb/s
    Channel(s) : 2 channels
    Sampling rate : 48.0 kHz
    Compression mode : Lossy
    Stream size : 58.1 MiB (12%)
    Alignment : Aligned on interleaves
    Interleave, duration : 24 ms (0.58 video frame)
    Interleave, preload duration : 485 ms
    Writing library : LAME3.97b
    Encoding settings : -m j -V 4 -q 3 -lowpass 18.6 --abr 192
    -
    • .:Rtuty:. ®
    • 21
    • Пол: Мужской

    • Стаж: 8 месяцев 15 дней

    • Сообщений: 1486

    • Откуда: Из хим.завода

    • Репутация: 1165


  • Создавать темы 17-Янв-2017 02:07 (спустя 6 дней)

    Добавлена 2-я серия
    Показать сообщения:    
    Главная » Сериалы » Американские и Европейские сериалы

    Текущее время: 19-Янв 07:10

    Часовой пояс: UTC + 5



    Вы не можете начинать темы
    Вы не можете отвечать на сообщения
    Вы не можете редактировать свои сообщения
    Вы не можете голосовать в опросах
    Вы не можете прикреплять файлы к сообщениям
    Вы не можете скачивать файлы
    Вы не можете удалять свои сообщения
    Firebit.red Torrent-Tracker :: 2016-2017 FBR Team Torrenpier pack by Baxrayder Supported by Media Portal Uztor.net