Гражданский брак / Сезон: 1 / Серии: 1-9 из 16 (Дина Штурманова) [ 2017 , Россия , комедия , WEB-DLRip ] :: FireBit.Red
Регистрация ·
Имя: Пароль:  
· Забыли пароль?


 Гражданский брак / Сезон: 1 / Серии: 1-9 из 16 (Дина Штурманова) [ 2017 , Россия , комедия , WEB-DLRip ]

Главная » Сериалы » Российские сериалы
 
Автор Сообщение
  • .:Rtuty:. ®
  • 21
  • Пол: Мужской

  • Стаж: 8 месяцев 15 дней

  • Сообщений: 1486

  • Откуда: Из хим.завода

  • Репутация: 1165


  • Создавать темы 10-Янв-2017 11:00

    Гражданский брак - -Год выпуска: 2017
    Страна: Россия
    Жанр: комедия
    Продолжительность: 1х 00:21:00
    Перевод: Не требуется
    Субтитры: Отсутствуют--Режиссер: Дина Штурманова--В ролях: Агата Муцениеце (Ника), Денис Кукояка (Тема), Дмитрий Астрахан (Палыч), Анна Легчилова (Люба), Ирина Чеснокова (Марина), Дмитрий Аверин (Коля), Михаил Грушевский (культовый комик), Стефания-Марьяна Гурская (Аня), Александр Шулико (Сэм), Степан Девонин (Глеб), Наталья Индейкина (Рита), Максим Литовченко (Дима)--Описание: История о паре, которой уже поздно встречаться, но рано жениться. Тёма и Ника вместе уже больше года и, им хорошо и весело вместе. Но они легкомысленные и не слишком серьезно ко всему относятся. Они не хотят повторять жизнь своих родителей: 18 - первая работа, в 20 - свадьба, в 25 - семья и трое детей.-- --Качество: WEB-DLRip
    Формат: AVI-Видео: MPEG-4 Visual, 704x400 (16:9), 1615 kbps, 25 fps, 0,230 bpp
    Аудио: AC3 / 2.0 / 48 kHz / 192 kbps / 16 bit-

    Media Info

    General
    Complete name : F:\Сериалы\Grazhdanskij.Brak.2017.XviD.WEB-DLRip.GeneralFilm\Grazhdanskij.Brak.01.avi
    Format : AVI
    Format/Info : Audio Video Interleave
    File size : 278 MiB
    Duration : 21 min 22 s
    Overall bit rate : 1 818 kb/s
    Writing application : VirtualDubMod 1.5.10.3 | www.virtualdub-fr.org || (build 2550/release)
    Writing library : VirtualDubMod build 2550/release
    Video
    ID : 0
    Format : MPEG-4 Visual
    Format profile : Advanced Simple@L5
    Format settings, BVOP : 1
    Format settings, QPel : No
    Format settings, GMC : No warppoints
    Format settings, Matrix : Custom
    Codec ID : XVID
    Codec ID/Hint : XviD
    Duration : 21 min 22 s
    Bit rate : 1 616 kb/s
    Width : 704 pixels
    Height : 400 pixels
    Display aspect ratio : 16:9
    Frame rate : 25.000 FPS
    Color space : YUV
    Chroma subsampling : 4:2:0
    Bit depth : 8 bits
    Scan type : Progressive
    Compression mode : Lossy
    Bits/(Pixel*Frame) : 0.230
    Stream size : 247 MiB (89%)
    Writing library : XviD 73
    Audio
    ID : 1
    Format : AC-3
    Format/Info : Audio Coding 3
    Mode extension : CM (complete main)
    Format settings, Endianness : Big
    Codec ID : 2000
    Duration : 21 min 22 s
    Bit rate mode : Constant
    Bit rate : 192 kb/s
    Channel(s) : 2 channels
    Channel positions : Front: L R
    Sampling rate : 48.0 kHz
    Frame rate : 31.250 FPS (1536 spf)
    Bit depth : 16 bits
    Compression mode : Lossy
    Stream size : 29.4 MiB (11%)
    Alignment : Split accross interleaves
    Interleave, duration : 40 ms (1.00 video frame)
    Interleave, preload duration : 500 ms
    -


    Последний раз редактировалось: .:Rtuty:. (Вчера, в 11:21), всего редактировалось 4 раз(а)
    • .:Rtuty:. ®
    • 21
    • Пол: Мужской

    • Стаж: 8 месяцев 15 дней

    • Сообщений: 1486

    • Откуда: Из хим.завода

    • Репутация: 1165


  • Создавать темы 11-Янв-2017 05:58 (спустя 18 часов)

    Добавлена 4-я и 5-я серия
    • .:Rtuty:. ®
    • 21
    • Пол: Мужской

    • Стаж: 8 месяцев 15 дней

    • Сообщений: 1486

    • Откуда: Из хим.завода

    • Репутация: 1165


  • Создавать темы 13-Янв-2017 13:36 (спустя 2 дня 7 часов)

    Добавлена 6-я и 7-я серия
    • .:Rtuty:. ®
    • 21
    • Пол: Мужской

    • Стаж: 8 месяцев 15 дней

    • Сообщений: 1486

    • Откуда: Из хим.завода

    • Репутация: 1165


  • Создавать темы 17-Янв-2017 06:23 (спустя 3 дня)

    Добавлена 8-я серия
    • .:Rtuty:. ®
    • 21
    • Пол: Мужской

    • Стаж: 8 месяцев 15 дней

    • Сообщений: 1486

    • Откуда: Из хим.завода

    • Репутация: 1165


  • Создавать темы Вчера, в 11:25 (спустя 1 день 5 часов)

    Добавлена 9-я серия, отдельное спасибо LovelyKiss... за предоставленный торрент файл
    Показать сообщения:    
    Главная » Сериалы » Российские сериалы

    Текущее время: 19-Янв 07:10

    Часовой пояс: UTC + 5



    Вы не можете начинать темы
    Вы не можете отвечать на сообщения
    Вы не можете редактировать свои сообщения
    Вы не можете голосовать в опросах
    Вы не можете прикреплять файлы к сообщениям
    Вы не можете скачивать файлы
    Вы не можете удалять свои сообщения
    Firebit.red Torrent-Tracker :: 2016-2017 FBR Team Torrenpier pack by Baxrayder Supported by Media Portal Uztor.net