Табу / Taboo / Сезон: 1 / Серии: 1-2 из 8 (Андерс Энгстрем, Кристоффер Нюхольм [2017 , Великобритания, США , драма , HDTVRip] (MVO) AlexFilm :: FireBit.Red
Регистрация ·
Имя: Пароль:  
· Забыли пароль?


 Табу / Taboo / Сезон: 1 / Серии: 1-2 из 8 (Андерс Энгстрем, Кристоффер Нюхольм [2017 , Великобритания, США , драма , HDTVRip] (MVO) AlexFilm

Главная » Сериалы » Американские и Европейские сериалы
 
Автор Сообщение
  • .:Rtuty:. ®
  • 21
  • Пол: Мужской

  • Стаж: 8 месяцев 15 дней

  • Сообщений: 1486

  • Откуда: Из хим.завода

  • Репутация: 1165


  • Создавать темы 10-Янв-2017 13:31

    Табу-Taboo- -Год выпуска: 2017
    Страна: Великобритания, США
    Жанр: драма
    Продолжительность: 00:55:08
    Перевод: Профессиональный многоголосый | AlexFilm
    Субтитры: Отсутствуют--Режиссер: Андерс Энгстрем / Anders Engström, Кристоффер Нюхольм / Kristoffer Nyholm--В ролях: Том Харди (James Keziah Delaney), Лео Билл (Wilton), Уна Чаплин (Zilpha Geary), Ричард Диксон (Pettifer), Дэвид Хейман (Brace), Майкл Келли (Dumbarton), Дэнни Лигаири (Martinez), Джонатан Прайс (Sir Stuart Strange), Рой Торн (Blacksmith), Скрубиус Пип (French Bill), Джейсон Уоткинс (Soloman Coop), Джефферсон Холл (Thorne Geary)--Описание: Искатель приключений Джеймс Кезиах Делейни строит свою собственную корабельную империю в начале 1800-х годов.-- -Качество: HDTVRip
    Формат: AVI--Видео: MPEG-4 Visual, 720x400 (16:9), 1402 kbps, 25 fps, 0,195 bpp
    Аудио #1: MP3 / 2.0 / 48 kHz / 128 kbps /
    Аудио #2: MP3 / 2.0 / 48 kHz / 128 kbps / / Eng
    -

    Media Info

    General
    Complete name : F:\Сериалы\Taboo - Season 1 (AlexFilm) HDTVRip\Taboo.s01e01.HDTVRip.Rus.Eng.AlexFilm.avi
    Format : AVI
    Format/Info : Audio Video Interleave
    File size : 660 MiB
    Duration : 55 min 8 s
    Overall bit rate : 1 673 kb/s
    Movie name : Taboo 1x01 @ AlexFilm
    Writing application : VirtualDubMod 1.5.10.2 (build 2540/release)
    Writing library : VirtualDubMod build 2540/release
    Video
    ID : 0
    Format : MPEG-4 Visual
    Format profile : Advanced Simple@L5
    Format settings, BVOP : No
    Format settings, QPel : No
    Format settings, GMC : No warppoints
    Format settings, Matrix : Default (MPEG)
    Codec ID : XVID
    Codec ID/Hint : XviD
    Duration : 55 min 8 s
    Bit rate : 1 403 kb/s
    Width : 720 pixels
    Height : 400 pixels
    Display aspect ratio : 16:9
    Frame rate : 25.000 FPS
    Color space : YUV
    Chroma subsampling : 4:2:0
    Bit depth : 8 bits
    Scan type : Progressive
    Compression mode : Lossy
    Bits/(Pixel*Frame) : 0.195
    Stream size : 553 MiB (84%)
    Writing library : XviD 73
    Audio #1
    ID : 1
    Format : MPEG Audio
    Format version : Version 1
    Format profile : Layer 3
    Mode : Joint stereo
    Codec ID : 55
    Codec ID/Hint : MP3
    Duration : 55 min 8 s
    Bit rate mode : Constant
    Bit rate : 128 kb/s
    Channel(s) : 2 channels
    Sampling rate : 48.0 kHz
    Compression mode : Lossy
    Stream size : 50.5 MiB (8%)
    Alignment : Aligned on interleaves
    Interleave, duration : 40 ms (1.00 video frame)
    Interleave, preload duration : 504 ms
    Title : Russian (AlexFilm)
    Writing library : LAME3.99r
    Encoding settings : -m j -V 4 -q 3 -lowpass 18 -b 128
    Audio #2
    ID : 2
    Format : MPEG Audio
    Format version : Version 1
    Format profile : Layer 3
    Mode : Joint stereo
    Mode extension : MS Stereo
    Codec ID : 55
    Codec ID/Hint : MP3
    Duration : 55 min 8 s
    Bit rate mode : Constant
    Bit rate : 128 kb/s
    Channel(s) : 2 channels
    Sampling rate : 48.0 kHz
    Compression mode : Lossy
    Stream size : 50.5 MiB (8%)
    Alignment : Aligned on interleaves
    Interleave, duration : 40 ms (1.00 video frame)
    Interleave, preload duration : 504 ms
    Title : English
    Writing library : LAME3.90.3
    -
    • .:Rtuty:. ®
    • 21
    • Пол: Мужской

    • Стаж: 8 месяцев 15 дней

    • Сообщений: 1486

    • Откуда: Из хим.завода

    • Репутация: 1165


  • Создавать темы 16-Янв-2017 07:50 (спустя 5 дней)

    Добавлена 2-я серия
    Показать сообщения:    
    Главная » Сериалы » Американские и Европейские сериалы

    Текущее время: 19-Янв 07:09

    Часовой пояс: UTC + 5



    Вы не можете начинать темы
    Вы не можете отвечать на сообщения
    Вы не можете редактировать свои сообщения
    Вы не можете голосовать в опросах
    Вы не можете прикреплять файлы к сообщениям
    Вы не можете скачивать файлы
    Вы не можете удалять свои сообщения
    Firebit.red Torrent-Tracker :: 2016-2017 FBR Team Torrenpier pack by Baxrayder Supported by Media Portal Uztor.net