Взломать блогеров (Максим Свешников) [2016 г., комедия, WEB-DLRip] :: FireBit.Red
Регистрация ·
Имя: Пароль:  
· Забыли пароль?


 Взломать блогеров (Максим Свешников) [2016 г., комедия, WEB-DLRip]

Главная » Фильмы » Фильмы России и стран СНГ » Фильмы 2016
 
Автор Сообщение
  • СССР ®
  • 4450
  • Пол: Мужской

  • Стаж: 1 месяц 2 дня

  • Сообщений: 175

  • Откуда: Ташкент Сергели р-он

  • Репутация: 50


  • Создавать темы 10-Янв-2017 19:20

    Взломать блогеров- Год выпуска: 2016
    Страна: Россия
    Жанр: комедия
    Продолжительность: 01:07:00
    Перевод: Не требуется-Режиссер: Максим Свешников
    В ролях: Саша Спилберг, Ивангай, Марьяна Ро, Ян Гордиенко, Юлия Пушман, Карина Каспарянц-Описание: Звездные блогеры рунета: Саша Спилберг, Ивангай и Марьяна Ро были «взломаны» неизвестным вирусом и перенеслись на «рабочие столы» своих компьютеров в виде анимационных героев. Под угрозой отношения Вани и Марьяны, карьера Саши и аккаунты миллионов их фанатов. Кто вторгся в их аккаунты и завладел всеми данными? Как вернуться в привычную онлайн-жизнь? Пошел обратный отсчет - ребята должны вырваться из цифровой ловушки.-КиноПоиск: 2.338 (2124)-Качество: WEB-DLRip
    Формат: AVI
    Видео: XviD, 720x400, 2138 kbps, 24 fps
    Аудио #1: AC3, 48 kHz, 384 kbps, 6 ch
    Аудио #2: AC3, 48 kHz, 384 kbps, 6 ch-

    MediaInfo

    General
    Complete name : E:\загрузки\VzLom.BLoggeroFF.2O16.O.WEB-DLRip.14OOMB.avi
    Format : AVI
    Format/Info : Audio Video Interleave
    File size : 1.37 GiB
    Duration : 1 h 7 min
    Overall bit rate : 2 921 kb/s
    Writing application : VirtualDubMod 1.5.10.2 (build 2540/release)
    Writing library : VirtualDubMod build 2540/release
    Video
    ID : 0
    Format : MPEG-4 Visual
    Format profile : Advanced Simple@L5
    Format settings, BVOP : 2
    Format settings, QPel : No
    Format settings, GMC : No warppoints
    Format settings, Matrix : Default (MPEG)
    Codec ID : XVID
    Codec ID/Hint : XviD
    Duration : 1 h 7 min
    Bit rate : 2 139 kb/s
    Width : 720 pixels
    Height : 400 pixels
    Display aspect ratio : 16:9
    Frame rate : 24.000 FPS
    Color space : YUV
    Chroma subsampling : 4:2:0
    Bit depth : 8 bits
    Scan type : Progressive
    Compression mode : Lossy
    Bits/(Pixel*Frame) : 0.309
    Stream size : 1.00 GiB (73%)
    Writing library : XviD 1.2.1 (UTC 2008-12-04)
    Audio #1
    ID : 1
    Format : AC-3
    Format/Info : Audio Coding 3
    Mode extension : CM (complete main)
    Format settings, Endianness : Big
    Codec ID : 2000
    Duration : 1 h 7 min
    Bit rate mode : Constant
    Bit rate : 384 kb/s
    Channel(s) : 6 channels
    Channel positions : Front: L C R, Side: L R, LFE
    Sampling rate : 48.0 kHz
    Frame rate : 31.250 FPS (1536 spf)
    Bit depth : 16 bits
    Compression mode : Lossy
    Stream size : 184 MiB (13%)
    Alignment : Split accross interleaves
    Interleave, duration : 42 ms (1.00 video frame)
    Interleave, preload duration : 500 ms
    Audio #2
    ID : 2
    Format : AC-3
    Format/Info : Audio Coding 3
    Mode extension : CM (complete main)
    Format settings, Endianness : Big
    Codec ID : 2000
    Duration : 1 h 7 min
    Bit rate mode : Constant
    Bit rate : 384 kb/s
    Channel(s) : 6 channels
    Channel positions : Front: L C R, Side: L R, LFE
    Sampling rate : 48.0 kHz
    Frame rate : 31.250 FPS (1536 spf)
    Bit depth : 16 bits
    Compression mode : Lossy
    Stream size : 184 MiB (13%)
    Alignment : Split accross interleaves
    Interleave, duration : 42 ms (1.00 video frame)
    Interleave, preload duration : 500 ms

    Релиз подготовлен R.G. Movies

    • Derzkiy_DDT
    • 2504
    • Пол: Мужской

    • Стаж: 5 месяцев 4 дня

    • Сообщений: 76

    • Откуда: Оттуда

    • Репутация: 20


  • Создавать темы 11-Янв-2017 05:09 (спустя 9 часов)

    Я вот от Женьки "BadComedian@" жду обзора на это дно!)))) Вот это да, вот это ожидание, вот это интересно посмотреть!))))
    P.S. Что с вами будет, после просмотра? Вот ответ:
    • insolent
    • 2587
    • Пол: Не указан

    • Стаж: 4 месяца 29 дней

    • Сообщений: 27

    • Репутация: 0


  • Создавать темы 11-Янв-2017 05:16 (спустя 6 минут)

    Кааапец тупой фильм, наверное бюджет не составляет даже 1000 долларов, но деньги на нём будут делать миллионы из-за знаменитости этих 3их. лучше не качайте и не смотрите, пожалейте свой час времени (п.с. я посмотрел за 15мин ... и то жалко, лучше бы в доту играл ^_^ )
    Показать сообщения:    
    Главная » Фильмы » Фильмы России и стран СНГ » Фильмы 2016

    Текущее время: 19-Янв 07:13

    Часовой пояс: UTC + 5



    Вы не можете начинать темы
    Вы не можете отвечать на сообщения
    Вы не можете редактировать свои сообщения
    Вы не можете голосовать в опросах
    Вы не можете прикреплять файлы к сообщениям
    Вы не можете скачивать файлы
    Вы не можете удалять свои сообщения
    Firebit.red Torrent-Tracker :: 2016-2017 FBR Team Torrenpier pack by Baxrayder Supported by Media Portal Uztor.net