Найди меня, если сможешь / Come and Find Me (Зак Уэдон) [ 2016 , Великобритания , триллер, драма , WEB-DLRip ] (MVO) Официальный звук :: FireBit.Red
Регистрация ·
Имя: Пароль:  
· Забыли пароль?


 Найди меня, если сможешь / Come and Find Me (Зак Уэдон) [ 2016 , Великобритания , триллер, драма , WEB-DLRip ] (MVO) Официальный звук

Главная » Фильмы » Зарубежные Фильмы » Фильмы 2016
 
Автор Сообщение
  • Mirotvorec ®
  • 4323
  • Пол: Мужской

  • Стаж: 1 месяц 8 дней

  • Сообщений: 53

  • Репутация: 198


  • Создавать темы 11-Янв-2017 01:25

    Найди меня, если сможешь / Come and Find Me-- Год выпуска: 2016
    Страна: Великобритания
    Жанр: триллер, драма
    Продолжительность: 01:52:11
    Перевод: Профессиональный многоголосый | Официальный звук--Режиссер: Зак Уэдон / Zack Whedon-В ролях: Аарон Пол, Аннабелль Уоллис, Гаррет Диллахант, Терри Чен, Захари Найтон, Джордана Ларги, Валери Тиан, Майкл Копса, Дин Редман, Джессика Хифи, Артин Браун, Алан О’Сильва--Описание: Клэр и Дэвид нашли друг друга и стали счастливой парой: ссорились, мирились и мечтали прожить вместе сто лет. Пока однажды Клэр не исчезла. В поисках любимой Дэвид сталкивается с криминальными авторитетами, сотрудниками спецслужб. Его чувствам предстоит подвергнуться серьезным испытаниям. Готов ли он идти до конца ради любви?--КиноПоиск: 5.441 (406)
    IMDb: 5.80 (1530)--Качество: WEB-DLRip
    Формат: AVI
    Видео: MPEG-4 Visual, 720x304, ~1660 kbps, 23,976 fps
    Аудио: AC3, 48 kHz, 192 kbps, 2 ch
    --

    MediaInfo

    General
    Complete name : D:\Video\Фильмы\Najdi.menya.esli.smozheshj.2O16.P.WEBDLRip.1.46GB.avi
    Format : AVI
    Format/Info : Audio Video Interleave
    File size : 1.46 GiB
    Duration : 1 h 52 min
    Overall bit rate : 1 862 kb/s
    Writing application : VirtualDubMod 1.5.10.2 (build 2540/release)
    Writing library : VirtualDubMod build 2540/release
    Video
    ID : 0
    Format : MPEG-4 Visual
    Format profile : Advanced Simple@L5
    Format settings, BVOP : 2
    Format settings, QPel : No
    Format settings, GMC : No warppoints
    Format settings, Matrix : Default (MPEG)
    Codec ID : XVID
    Codec ID/Hint : XviD
    Duration : 1 h 52 min
    Bit rate : 1 660 kb/s
    Width : 720 pixels
    Height : 304 pixels
    Display aspect ratio : 2.35:1
    Frame rate : 23.976 (24000/1001) FPS
    Color space : YUV
    Chroma subsampling : 4:2:0
    Bit depth : 8 bits
    Scan type : Progressive
    Compression mode : Lossy
    Bits/(Pixel*Frame) : 0.316
    Stream size : 1.30 GiB (89%)
    Writing library : XviD 1.2.1 (UTC 2008-12-04)
    Audio
    ID : 1
    Format : AC-3
    Format/Info : Audio Coding 3
    Mode extension : CM (complete main)
    Format settings, Endianness : Big
    Codec ID : 2000
    Duration : 1 h 52 min
    Bit rate mode : Constant
    Bit rate : 192 kb/s
    Channel(s) : 2 channels
    Channel positions : Front: L R
    Sampling rate : 48.0 kHz
    Frame rate : 31.250 FPS (1536 spf)
    Bit depth : 16 bits
    Compression mode : Lossy
    Stream size : 154 MiB (10%)
    Alignment : Split accross interleaves
    Interleave, duration : 42 ms (1.00 video frame)
    Interleave, preload duration : 500 ms
    -
    • drnemo
    • 811
    • Пол: Мужской

    • Стаж: 7 месяцев 10 дней

    • Сообщений: 187

    • Откуда: Ташкент

    • Репутация: 25


  • Создавать темы 11-Янв-2017 08:47 (спустя 7 часов)

    у Америкосов других название не ту уже по ходу. Все названий фильм друг к другу похожи.Самый интересный всеравно с участием Леонардо Дикаприо и Том Ханкс кто смотрел.
    Показать сообщения:    
    Главная » Фильмы » Зарубежные Фильмы » Фильмы 2016

    Текущее время: 19-Янв 07:14

    Часовой пояс: UTC + 5



    Вы не можете начинать темы
    Вы не можете отвечать на сообщения
    Вы не можете редактировать свои сообщения
    Вы не можете голосовать в опросах
    Вы не можете прикреплять файлы к сообщениям
    Вы не можете скачивать файлы
    Вы не можете удалять свои сообщения
    Firebit.red Torrent-Tracker :: 2016-2017 FBR Team Torrenpier pack by Baxrayder Supported by Media Portal Uztor.net