Американская милашка / American Honey (Андреа Арнольд) [2016 г., драма, WEB-DLRip] (MVO) :: FireBit.Red
Регистрация ·
Имя: Пароль:  
· Забыли пароль?


 Американская милашка / American Honey (Андреа Арнольд) [2016 г., драма, WEB-DLRip] (MVO)

Главная » Фильмы » Зарубежные Фильмы » Фильмы 2016
 
Автор Сообщение
  • Mirotvorec ®
  • 4323
  • Пол: Мужской

  • Стаж: 1 месяц 8 дней

  • Сообщений: 53

  • Репутация: 198


  • Создавать темы 11-Янв-2017 06:37

    Американская милашка / American Honey--
    Каннский кинофестиваль 2016
    Приз жюри, Приз экуменического (христианского) жюри - особое упоминание
    - -Год выпуска: 2016
    Страна: Великобритания, США
    Жанр: драма
    Продолжительность: 02:43:32
    Перевод: Любительский многоголосый--Режиссер: Андреа Арнольд / Andrea Arnold--В ролях: Саша Лэйн, Шайа ЛаБаф, Райли Кио, МакКаул Ломбарди, Ариэль Холмс, Кристал Айс, Вероника Эзелл, Чад Кокс, Гарри Хауэлл, Кеннет Кори Такер, Рэймонд Коалсон, Айзиа Стоун--Описание: 18-летняя Стар никогда не покидала родного городка. Влюбившись с первого взгляда в парня из проезжавшего мимо микроавтобуса, она, не долго думая, отправляется колесить по Среднему Западу в компании таких же неприкаянных подростков, продающих подписку на журналы. Молодость и радость - новые места, первая любовь, первые заработанные деньги и первый настоящий жизненный опыт.--КиноПоиск: 7.708 (282)
    IMDb: 7.30 (6038)--Качество: WEB-DLRip
    Формат: AVI
    Видео: MPEG-4 Visual, 720x544, ~1935 kbps, 23,976 fps
    Аудио: AC3, 48 kHz, 448 kbps, 2 ch-

    MediaInfo

    General
    Complete name : D:\Video\Фильмы\American.Honey.2016.P.HDRip.28OOMB.avi
    Format : AVI
    Format/Info : Audio Video Interleave
    Format profile : OpenDML
    File size : 2.74 GiB
    Duration : 2 h 43 min
    Overall bit rate : 2 394 kb/s
    Writing application : VirtualDubMod 1.5.10.2 (build 2540/release)
    Writing library : VirtualDubMod build 2540/release
    Video
    ID : 0
    Format : MPEG-4 Visual
    Format profile : Advanced Simple@L5
    Format settings, BVOP : 2
    Format settings, QPel : No
    Format settings, GMC : No warppoints
    Format settings, Matrix : Default (MPEG)
    Codec ID : XVID
    Codec ID/Hint : XviD
    Duration : 2 h 43 min
    Bit rate : 1 936 kb/s
    Width : 720 pixels
    Height : 544 pixels
    Display aspect ratio : 4:3
    Frame rate : 23.976 (24000/1001) FPS
    Color space : YUV
    Chroma subsampling : 4:2:0
    Bit depth : 8 bits
    Scan type : Progressive
    Compression mode : Lossy
    Bits/(Pixel*Frame) : 0.206
    Stream size : 2.21 GiB (81%)
    Writing library : XviD 1.2.1 (UTC 2008-12-04)
    Audio
    ID : 1
    Format : AC-3
    Format/Info : Audio Coding 3
    Mode extension : CM (complete main)
    Format settings, Endianness : Big
    Codec ID : 2000
    Duration : 2 h 43 min
    Bit rate mode : Constant
    Bit rate : 448 kb/s
    Channel(s) : 2 channels
    Channel positions : Front: L R
    Sampling rate : 48.0 kHz
    Frame rate : 31.250 FPS (1536 spf)
    Bit depth : 16 bits
    Compression mode : Lossy
    Stream size : 524 MiB (19%)
    Alignment : Split accross interleaves
    Interleave, duration : 42 ms (1.00 video frame)
    Interleave, preload duration : 500 ms
    -
    • drnemo
    • 811
    • Пол: Мужской

    • Стаж: 7 месяцев 10 дней

    • Сообщений: 187

    • Откуда: Ташкент

    • Репутация: 25


  • Создавать темы 11-Янв-2017 08:51 (спустя 2 часа 13 минут)

    Чота Файс на мелушка не тянет по ходу )))
    • insolent
    • 2587
    • Пол: Не указан

    • Стаж: 4 месяца 29 дней

    • Сообщений: 27

    • Репутация: 0


  • Создавать темы 11-Янв-2017 09:31 (спустя 40 минут)

    На 2ом фото просто Секс! Аж возбуждает ...
    • jakbaroff
    • 431
    • Пол: Мужской

    • Стаж: 8 месяцев 6 дней

    • Сообщений: 444

    • Откуда: берутся дети?

    • Репутация: 134


  • Создавать темы 11-Янв-2017 11:43 (спустя 2 часа 12 минут)

    18926На 2ом фото просто Секс! Аж возбуждает ...
    если это фото тебя возбуждает, то я могу сказать что я видел все в этой короткой жизни)))
    • Machine jr.
    • 47
    • Пол: Мужской

    • Стаж: 8 месяцев 15 дней

    • Сообщений: 272

    • Откуда: Central City

    • Репутация: 234


  • Создавать темы 11-Янв-2017 13:40 (спустя 1 час 57 минут)

    jakbaroff, это же был сарказм)
    • jakbaroff
    • 431
    • Пол: Мужской

    • Стаж: 8 месяцев 6 дней

    • Сообщений: 444

    • Откуда: берутся дети?

    • Репутация: 134


  • Создавать темы 11-Янв-2017 15:26 (спустя 1 час 46 минут)

    18932jakbaroff, это же был сарказм)
    как не крути я не понимаю сарказма))
    • Бомжик
    • 2369
    • Пол: Мужской

    • Стаж: 5 месяцев 14 дней

    • Сообщений: 134

    • Откуда: Оттуда

    • Репутация: 56


  • Создавать темы 11-Янв-2017 15:40 (спустя 13 минут)

    18926На 2ом фото просто Секс! Аж возбуждает ...
    фап фап...
    • Olabuji
    • 1475
    • Пол: Мужской

    • Стаж: 6 месяцев 25 дней

    • Сообщений: 3

    • Откуда: Карши

    • Репутация: 0


  • Создавать темы 11-Янв-2017 17:27 (спустя 1 час 47 минут)

    кто нибудь смотрел фильм?
    Показать сообщения:    
    Главная » Фильмы » Зарубежные Фильмы » Фильмы 2016

    Текущее время: 19-Янв 07:12

    Часовой пояс: UTC + 5



    Вы не можете начинать темы
    Вы не можете отвечать на сообщения
    Вы не можете редактировать свои сообщения
    Вы не можете голосовать в опросах
    Вы не можете прикреплять файлы к сообщениям
    Вы не можете скачивать файлы
    Вы не можете удалять свои сообщения
    Firebit.red Torrent-Tracker :: 2016-2017 FBR Team Torrenpier pack by Baxrayder Supported by Media Portal Uztor.net