Затерянные в Тихом океане / Lost in the Pacific (Винсент Чжоу) [2016 г., фантастика, триллер, приключения, WEB-DLRip] (MVO) КОЛОБОК :: FireBit.Red
Регистрация ·
Имя: Пароль:  
· Забыли пароль?


 Затерянные в Тихом океане / Lost in the Pacific (Винсент Чжоу) [2016 г., фантастика, триллер, приключения, WEB-DLRip] (MVO) КОЛОБОК

Главная » Фильмы » Азиатские Фильмы
 
Автор Сообщение
  • Mirotvorec ®
  • 4323
  • Пол: Мужской

  • Стаж: 1 месяц 8 дней

  • Сообщений: 53

  • Репутация: 198


  • Создавать темы 11-Янв-2017 08:01

    Затерянные в Тихом океане / Lost in the Pacific-- Год выпуска: 2016
    Страна: Китай, США
    Жанр: фантастика, триллер, приключения
    Продолжительность: 01:30:21
    Перевод: Любительский многоголосый | КОЛОБОК--Режиссер: Винсент Чжоу / Vincent Zhou--В ролях: Брэндон Рут, Китти Чжан, Расселл Вонг, Бернисе Лью, Цзян Мэнцзе, Каиви Лайман, Винсент Уорд, Тазито Гарсиа, Санни Ванг, Dai Yang Tian, Наташа Ллойд, Тим Пэрриш--Описание: 2020 год. Самые богатые люди мира собрались на борту гигантского самолёта - так называемого Небесного Титаника. Во время перелета через Тихий океан самолёт сталкивается с заброшенным авианосцем. Пилот принимает решение посадить авиалайнер на необитаемый остров посреди океана. На борту воцаряется хаос и паника. Однако вскоре пассажиры самолёта начинаю понимать, что это не просто трагическая случайность.--КиноПоиск: 3.175 (177)
    IMDb: 5.50 (462)--Качество: WEB-DLRip
    Формат: AVI
    Видео: MPEG-4 Visual, 720x384, ~1772 kbps, 23,976 fps
    Аудио: AC3, 48 kHz, 384 kbps, 2 ch
    -

    MediaInfo

    General
    Complete name : F:\Фильмы\Lost.in.the.Pacific.2016.P.WEB-DLRip.14OOMB_KOSHARA.avi
    Format : AVI
    Format/Info : Audio Video Interleave
    File size : 1.37 GiB
    Duration : 1 h 30 min
    Overall bit rate : 2 166 kb/s
    Writing application : VirtualDubMod 1.5.10.2 (build 2540/release)
    Writing library : VirtualDubMod build 2540/release
    Video
    ID : 0
    Format : MPEG-4 Visual
    Format profile : Advanced Simple@L5
    Format settings, BVOP : 2
    Format settings, QPel : No
    Format settings, GMC : No warppoints
    Format settings, Matrix : Default (MPEG)
    Codec ID : XVID
    Codec ID/Hint : XviD
    Duration : 1 h 30 min
    Bit rate : 1 773 kb/s
    Width : 720 pixels
    Height : 384 pixels
    Display aspect ratio : 1.85:1
    Frame rate : 23.976 (24000/1001) FPS
    Color space : YUV
    Chroma subsampling : 4:2:0
    Bit depth : 8 bits
    Scan type : Progressive
    Compression mode : Lossy
    Bits/(Pixel*Frame) : 0.267
    Stream size : 1.12 GiB (82%)
    Writing library : XviD 1.2.1 (UTC 2008-12-04)
    Audio
    ID : 1
    Format : AC-3
    Format/Info : Audio Coding 3
    Mode extension : CM (complete main)
    Format settings, Endianness : Big
    Codec ID : 2000
    Duration : 1 h 30 min
    Bit rate mode : Constant
    Bit rate : 384 kb/s
    Channel(s) : 2 channels
    Channel positions : Front: L R
    Sampling rate : 48.0 kHz
    Frame rate : 31.250 FPS (1536 spf)
    Bit depth : 16 bits
    Compression mode : Lossy
    Stream size : 248 MiB (18%)
    Alignment : Split accross interleaves
    Interleave, duration : 42 ms (1.00 video frame)
    Interleave, preload duration : 500 ms
    -

    Релиз подготовлен R.G. Movies

    • Dead_MoroZzz
    • 2615
    • Пол: Мужской

    • Стаж: 4 месяца 27 дней

    • Сообщений: 69

    • Репутация: 191


  • Создавать темы 12-Янв-2017 19:12 (спустя 1 день 11 часов)

    Во время перелета через Тихий океан самолёт сталкивается с заброшенным авианосцем
    WTF!? Что за БРЕД!?!?!?
    Показать сообщения:    
    Главная » Фильмы » Азиатские Фильмы

    Текущее время: 19-Янв 07:13

    Часовой пояс: UTC + 5



    Вы не можете начинать темы
    Вы не можете отвечать на сообщения
    Вы не можете редактировать свои сообщения
    Вы не можете голосовать в опросах
    Вы не можете прикреплять файлы к сообщениям
    Вы не можете скачивать файлы
    Вы не можете удалять свои сообщения
    Firebit.red Torrent-Tracker :: 2016-2017 FBR Team Torrenpier pack by Baxrayder Supported by Media Portal Uztor.net