Сектор / The Sector (Джош Риджвей) [2016 г., фантастика, WEB-DLRip] (MVO) @MUZOBOZ@ :: FireBit.Red
Регистрация ·
Имя: Пароль:  
· Забыли пароль?


 Сектор / The Sector (Джош Риджвей) [2016 г., фантастика, WEB-DLRip] (MVO) @MUZOBOZ@

Главная » Фильмы » Зарубежные Фильмы » Фильмы 2016
 
Автор Сообщение
  • Mirotvorec ®
  • 4323
  • Пол: Мужской

  • Стаж: 1 месяц 8 дней

  • Сообщений: 53

  • Репутация: 198


  • Создавать темы 11-Янв-2017 23:33

    Сектор / The Sector-- Год выпуска: 2016
    Страна: США
    Жанр: фантастика
    Продолжительность: 01:26:29
    Перевод: Любительский многоголосый | @MUZOBOZ@--Режиссер: Джош Риджвей / Josh Ridgway--В ролях: Эрик Робертс, Лэнс Хенриксен, Джон Уэсли Шипп, Ричард Тайсон, Вернон Уэллс, Кларенс Гильярд мл., Джеймс Уилчек, Карл Бэйли, Молли Миллиган, Сюзанна Гибб, Мэттью Томпкинс, Марк Хэнсон--Описание: Мрачный мир… Процветает преступность, ведь в это тяжелое для человечества время бандитов тяжело поставить «на место». Охотник за головами берет задание найти и спасти девушку и ее отца, важную личность в этом полуразрушенном мире.--IMDb: 5.60 (21)--Качество: WEB-DLRip
    Формат: AVI
    Видео: MPEG-4 Visual, 720x400, ~1870 kbps, 23,976 fps
    Аудио: AC3, 48 kHz, 384 kbps, 2 ch
    -

    MediaInfo

    General
    Complete name : D:\Video\Фильмы\The.Sector.2016.P.WEB-DLRip.14OOMB.avi
    Format : AVI
    Format/Info : Audio Video Interleave
    File size : 1.37 GiB
    Duration : 1 h 26 min
    Overall bit rate : 2 263 kb/s
    Writing application : VirtualDubMod 1.5.10.2 (build 2540/release)
    Writing library : VirtualDubMod build 2540/release
    Video
    ID : 0
    Format : MPEG-4 Visual
    Format profile : Advanced Simple@L5
    Format settings, BVOP : 2
    Format settings, QPel : No
    Format settings, GMC : No warppoints
    Format settings, Matrix : Default (MPEG)
    Codec ID : XVID
    Codec ID/Hint : XviD
    Duration : 1 h 26 min
    Bit rate : 1 870 kb/s
    Width : 720 pixels
    Height : 400 pixels
    Display aspect ratio : 16:9
    Frame rate : 23.976 (24000/1001) FPS
    Color space : YUV
    Chroma subsampling : 4:2:0
    Bit depth : 8 bits
    Scan type : Progressive
    Compression mode : Lossy
    Bits/(Pixel*Frame) : 0.271
    Stream size : 1.13 GiB (83%)
    Writing library : XviD 1.2.1 (UTC 2008-12-04)
    Audio
    ID : 1
    Format : AC-3
    Format/Info : Audio Coding 3
    Mode extension : CM (complete main)
    Format settings, Endianness : Big
    Codec ID : 2000
    Duration : 1 h 26 min
    Bit rate mode : Constant
    Bit rate : 384 kb/s
    Channel(s) : 2 channels
    Channel positions : Front: L R
    Sampling rate : 48.0 kHz
    Frame rate : 31.250 FPS (1536 spf)
    Bit depth : 16 bits
    Compression mode : Lossy
    Stream size : 238 MiB (17%)
    Alignment : Split accross interleaves
    Interleave, duration : 42 ms (1.00 video frame)
    Interleave, preload duration : 500 ms
    -

    Релиз подготовлен R.G. Movies

    Показать сообщения:    
    Главная » Фильмы » Зарубежные Фильмы » Фильмы 2016

    Текущее время: 19-Янв 07:15

    Часовой пояс: UTC + 5



    Вы не можете начинать темы
    Вы не можете отвечать на сообщения
    Вы не можете редактировать свои сообщения
    Вы не можете голосовать в опросах
    Вы не можете прикреплять файлы к сообщениям
    Вы не можете скачивать файлы
    Вы не можете удалять свои сообщения
    Firebit.red Torrent-Tracker :: 2016-2017 FBR Team Torrenpier pack by Baxrayder Supported by Media Portal Uztor.net