Бен-Гур / Ben-Hur (Тимур Бекмамбетов) [2016 г., боевик, драма, приключения, HDRip] iTunes :: FireBit.Red
Регистрация ·
Имя: Пароль:  
· Забыли пароль?


 Бен-Гур / Ben-Hur (Тимур Бекмамбетов) [2016 г., боевик, драма, приключения, HDRip] iTunes

Главная » Фильмы » Зарубежные Фильмы » Фильмы 2016
 
Автор Сообщение
  • Mirotvorec ®
  • 4323
  • Пол: Мужской

  • Стаж: 1 месяц 8 дней

  • Сообщений: 53

  • Репутация: 198


  • Создавать темы 12-Янв-2017 09:15

    Бен-Гур / Ben-Hur-- Год выпуска: 2016
    Страна: США
    Жанр: боевик, драма, приключения
    Продолжительность: 02:03:19
    Перевод: Дублированный [Лицензия]--Режиссер: Тимур Бекмамбетов--В ролях: Джек Хьюстон, Тоби Кеббелл, Родриго Санторо, Назанин Бониади, Айелет Зурер, Йохан Филип Асбек, София Блэк-Д’Элиа, Морган Фриман, Марван Кензари, Мойзес Ариас, Джеймс Космо, Халук Бильгинер--Описание: История Бен-Гура, потомка знатного иудейского рода, который был предан своим лучшим другом-римлянином. Проведя много лет в рабстве на римских галерах, Бен-Гур в итоге получает возможность вернуться на родину и отомстить обидчику.--КиноПоиск: 5.910 (7354)
    IMDb: 5.70 (15 724)--Качество: HDRip
    Формат: AVI
    Видео: MPEG-4 Visual, 720x304, ~1193 kbps, 23,976 fps
    Аудио: AC3, 48 kHz, 384 kbps, 6 ch
    -

    MediaInfo

    General
    Complete name : D:\Video\Фильмы\Ben-Hur.2O16.D.HDRip.14OOMB.CO.avi
    Format : AVI
    Format/Info : Audio Video Interleave
    File size : 1.37 GiB
    Duration : 2 h 3 min
    Overall bit rate : 1 587 kb/s
    Writing application : VirtualDubMod 1.5.10.2 (build 2540/release)
    Writing library : VirtualDubMod build 2540/release
    Video
    ID : 0
    Format : MPEG-4 Visual
    Format profile : Advanced Simple@L5
    Format settings, BVOP : 2
    Format settings, QPel : No
    Format settings, GMC : No warppoints
    Format settings, Matrix : Default (MPEG)
    Codec ID : XVID
    Codec ID/Hint : XviD
    Duration : 2 h 3 min
    Bit rate : 1 194 kb/s
    Width : 720 pixels
    Height : 304 pixels
    Display aspect ratio : 2.35:1
    Frame rate : 23.976 (24000/1001) FPS
    Color space : YUV
    Chroma subsampling : 4:2:0
    Bit depth : 8 bits
    Scan type : Progressive
    Compression mode : Lossy
    Bits/(Pixel*Frame) : 0.227
    Stream size : 1.03 GiB (75%)
    Writing library : XviD 1.2.1 (UTC 2008-12-04)
    Audio
    ID : 1
    Format : AC-3
    Format/Info : Audio Coding 3
    Mode extension : CM (complete main)
    Format settings, Endianness : Big
    Codec ID : 2000
    Duration : 2 h 3 min
    Bit rate mode : Constant
    Bit rate : 384 kb/s
    Channel(s) : 6 channels
    Channel positions : Front: L C R, Side: L R, LFE
    Sampling rate : 48.0 kHz
    Frame rate : 31.250 FPS (1536 spf)
    Bit depth : 16 bits
    Compression mode : Lossy
    Stream size : 339 MiB (24%)
    Alignment : Split accross interleaves
    Interleave, duration : 42 ms (1.00 video frame)
    Interleave, preload duration : 500 ms

    Релиз подготовлен R.G. Movies

    Показать сообщения:    
    Главная » Фильмы » Зарубежные Фильмы » Фильмы 2016

    Текущее время: 19-Янв 07:15

    Часовой пояс: UTC + 5



    Вы не можете начинать темы
    Вы не можете отвечать на сообщения
    Вы не можете редактировать свои сообщения
    Вы не можете голосовать в опросах
    Вы не можете прикреплять файлы к сообщениям
    Вы не можете скачивать файлы
    Вы не можете удалять свои сообщения
    Firebit.red Torrent-Tracker :: 2016-2017 FBR Team Torrenpier pack by Baxrayder Supported by Media Portal Uztor.net